Bar Wrestling 51 Rose Parade 2020 720p

Bar Wrestling 51 Rose Parade 2020 720p

Bar Wrestling 51 2020 01 01 Rose Parade 720p WEB h264-NCMP

Bar Wrestling 51 Rose Parade 2020 720p
Description Bar Wrestling 51: Rose Parade
Video Duration: 01:58:37

Bar Wrestling 51: Rose Parade
January 1, 2020
Bootleg Theater
Los Angeles, CA

1. Andy Brown, Priscilla Kelly & Ray Rosas vs
Chris Bey, Eli Everfly & Miranda Alize
2. Jake Atlas vs Adrian Quest
3. The RockNES Monsters vs Revolt! vs
Dom Kubrick & Heather Monroe
4. Tommy Dreamer vs Watts
5. Kris Statlander vs Gisele Shaw
6. David Arquette & RJ City vs Colt Cabana & Joey Ryan
7. Brian Cage vs Teddy Hart

General
Format : MPEG-4
Format profile : Base Media
Codec ID : isom
File size : 1.92 GiB
Duration : 1h 58mn
Writing application : Lavf57.72.101

Video
Codec ID : avc1
Codec ID/Info : Advanced Video Coding
Duration : 1h 58mn
Bit rate mode : Variable
Bit rate : 2 181 Kbps
Width : 1 280 pixels
Height : 720 pixels
Display aspect ratio : 16:9
Frame rate mode : Variable
Frame rate : 29.970 fps
Minimum frame rate : 29.960 fps
Maximum frame rate : 90 000.000 fps
Color space : YUV
Chroma subsampling : 4:2:0
Bit depth : 8 bits
Scan type : Progressive
Bits/(Pixel*Frame) : 0.079
Stream size : 1.81 GiB (94%)

Audio
Duration : 1h 58mn
Bit rate mode : Constant
Bit rate : 128 Kbps
Channel(s) : 2 channels
Channel positions : Front: L R
Sampling rate : 48.0 KHz
Compression mode : Lossy
Stream size : 109 MiB (6%)

Watch Bar Wrestling 51 Rose Parade

Bar Wrestling 51 Rose Parade 2020 720p

dOwnload With our Vip File hoster + more than 20 free hosts [Full Speed / resumability]
Bar Wrestling 51 Rose Parade 2020 720p

Bar Wrestling 51 Rose Parade 2020 720p

Check Comments 2 dowwnload parts [Rars]

Bar Wrestling 51 Rose Parade 2020 720p

vw

 114 total views,  1 views today

Bar Wrestling 51 Rose Parade 2020 720p

WH : Source OF Wrestling Releases / Home OF WH Releases

Buy Premium or Renew From WH Links to Keep it Alive

About PH.M.H

[Wrestling Best Uploader]

View all posts by PH.M.H →

One Comment on “Bar Wrestling 51 Rose Parade 2020 720p”

Leave a Reply

Your email address will not be published. Required fields are marked *