Bar Wrestling 43 The Wildest Ride in the Wilderness 720p

Spread the love

Bar Wrestling 43 2019 09 04 The Wildest Ride in the Wilderness 720p WEB h264-NCMP

dOWNLOAD Bar Wrestling 43 The Wildest Ride in the Wilderness 720p

Bar Wrestling 43 The Wildest Ride in the Wilderness 720p
Video Duration: 01:59:48

Bar Wrestling 43 The Wildest Ride in the Wilderness
American Legion Post #241
Baldwin Park, CA
September 4, 2019

1. Los Luchas vs Wakanda Vice

2. Royce Isaacs vs Jungle Boy

3. Dom Kubrick & Heather Monroe vs Kip Sabian & Penelope Ford

4. Killer Kross vs Jake Atlas

5. Joey Ryan, Andy Brown & Tyler Bateman vs Ryan Taylor and RockNES Monsters

6. Ivelisse vs Ray Rosas

7. Diego Valles vs John Hennigan vs Luchasaurus

General
Complete name : Bar.Wrestling.43.2019.09.04.The.Wildest.Ride.in.the.Wilderness.720p.WEB.h264-NCMP.mp4
Format : MPEG-4
Format profile : Base Media
Codec ID : isom
File size : 1.78 GiB
Duration : 1h 59mn
Overall bit rate : 2 129 Kbps
Writing application : Lavf57.72.101

Video
ID : 1
Format : AVC
Format/Info : Advanced Video Codec
Format profile : [email protected]
Format settings, CABAC : Yes
Format settings, ReFrames : 3 frames
Codec ID : avc1
Codec ID/Info : Advanced Video Coding
Duration : 1h 59mn
Bit rate mode : Variable
Bit rate : 1 928 Kbps
Width : 1 280 pixels
Height : 720 pixels
Display aspect ratio : 16:9
Frame rate mode : Variable
Frame rate : 29.970 fps
Minimum frame rate : 29.960 fps
Maximum frame rate : 90 000.000 fps
Color space : YUV
Chroma subsampling : 4:2:0
Bit depth : 8 bits
Scan type : Progressive
Bits/(Pixel*Frame) : 0.070
Stream size : 1.61 GiB (91%)

Audio
ID : 2
Format : AAC
Format/Info : Advanced Audio Codec
Format profile : LC
Codec ID : 40
Duration : 1h 59mn
Bit rate mode : Constant
Bit rate : 192 Kbps
Channel(s) : 2 channels
Channel positions : Front: L R
Sampling rate : 48.0 KHz
Compression mode : Lossy
Stream size : 164 MiB (9%)

Bar Wrestling 43 The Wildest Ride in the Wilderness 720p

4downfiles

4downfiles.org/zgwy545d1z0r

fileup
fileup.cc/84jmp7b34nku

nitroflare
nitroflare.com/view/7CFC286398B732D

uploadgig
uploadgig.com/file/download/b42254d78eDb90c3

rapidgator
rapidgator.net/file/d520bdc0ae773b0a8d2392fef8675bbb

About PH.M.H

[Wrestling Best Uploader]

View all posts by PH.M.H →

2 Comments on “Bar Wrestling 43 The Wildest Ride in the Wilderness 720p”

Leave a Reply

Your email address will not be published. Required fields are marked *