Bar Wrestling 37 2019 06 12 Sashay Away 720p

Bar Wrestling 37 2019 06 12 Sashay Away 720p WEB h264-NCMP

Download Bar Wrestling 37 Sashay Away 2019 720p Free direct Hosts

Bar Wrestling 37 2019 06 12 Sashay Away 720p

Bar Wrestling 37 2019 06 12 Sashay Away 720p WEB h264-NCMP

DescriptionBar Wrestling 37 Sashay Away
Video Duration: 01:07:14

Bar Wrestling 37 Sashay Away
June 12, 2019
Bootleg Theater
Los Angeles, CA


First 3 matches have no commentary.

Floor Camera only due to technical difficulties.

1. RockNES Monsters vs Andy Brown & Brandon Cutler

2. Watts vs Luchasaurus

3. Doomfly vs Phoenix Star & Zokre

4. Tyler Bateman vs Scorpio Sky

5. Sea Stars vs PPRay

6. Joey Ryan, Sonny Kiss, & Taya Valkyrie vs Dom Kubrick, Heather Monroe & Jake Atlas

General
Complete name : Bar.Wrestling.37.2019.06.12.Sashay.Away.720p.WEB.h264-NCMP.mp4
Format : MPEG-4
Format profile : Base Media
Codec ID : isom (isom/iso2/avc1/mp41)
File size : 1.09 GiB
Duration : 1 h 7 min
Overall bit rate : 2 317 kb/s
Writing application : Lavf56.19.101

Video
ID : 1
Format : AVC
Format/Info : Advanced Video Codec
Format profile : [email protected]
Format settings : CABAC / 3 Ref Frames
Format settings, CABAC : Yes
Format settings, Reference : 3 frames
Codec ID : avc1
Codec ID/Info : Advanced Video Coding
Duration : 1 h 7 min
Bit rate : 2 180 kb/s
Width : 1 280 pixels
Height : 720 pixels
Display aspect ratio : 16:9
Frame rate mode : Variable
Frame rate : 29.970 FPS
Minimum frame rate : 29.960 FPS
Maximum frame rate : 90 000.000 FPS
Color space : YUV
Chroma subsampling : 4:2:0
Bit depth : 8 bits
Scan type : Progressive
Bits/(Pixel*Frame) : 0.079
Stream size : 1.02 GiB (94%)
Codec configuration box : avcC

Audio
ID : 2
Format : AAC LC
Format/Info : Advanced Audio Codec Low Complexity
Codec ID : mp4a-40-2
Duration : 1 h 7 min
Bit rate mode : Constant
Bit rate : 128 kb/s
Channel(s) : 2 channels
Channel layout : L R
Sampling rate : 48.0 kHz
Frame rate : 46.875 FPS (1024 SPF)
Compression mode : Lossy
Stream size : 61.5 MiB (6%)
Default : Yes
Alternate group : 1

Bar Wrestling 37 2019 06 12 Sashay Away 720p

dailyuploads

dailyuploads.net/09bdkqmeicby

nitroflare
nitroflare.com/view/C0C1356DA118485

Rapidgator
rg.to/file/b42b079d75d0e2a6e9a1b44e2a171c00

uptomega
uptomega.com/mtroqtdlx944

1fichier.com/?0ssmxjzu7ydqeiufpxws
bayfiles.com/H0Ychbw4nd
dl.free.fr/i7AnMepia
file.bz/M4Y6h5w0nc
www.filefactory.com/file/2bo2rxxjycsb
multiup.org/download/6ac5deea637589ded1650db6475371a6
turbobit.net/dgmbt98s48zz.html
uptobox.com/qog0fpaxbhsm

 115 total views,  3 views today

Bar Wrestling 37 2019 06 12 Sashay Away 720p

WH : Source OF Wrestling Releases / Home OF WH Releases

Buy Premium or Renew From WH Links to Keep it Alive

About PH.M.H

[Wrestling Best Uploader]

View all posts by PH.M.H →

Leave a Reply

Your email address will not be published. Required fields are marked *