AAW 2019 03 16 Hell Hath No Fury 720p [Re Uploaded]

AAW 2019 03 16 Hell Hath No Fury 720p WEB h264-iNDYHEEL

DOWNLOAD AAW HELL Hath NO Fury 2019 FULL EVENT FREE Hosts
AAW 2019 03 16 Hell Hath No Fury 720p [Re Uploaded]
AAW.2019.03.16.Hell.Hath.No.Fury.720p.WEB.h264-iNDYHEEL



1. Ace Austin vs. Hakim Zane vs. Joey Lynch vs. Gringo Loco

2. Clayton Gainz vs. FATU

3. PACO vs. Logan & Sterling Reigel vs. Larry D vs. Kimber Lee vs. Spyder Bate Webb

4. Fred Yehi vs. Eddie Edwards

5. Jimmy Jacobs vs. Mance Warner

6. Best Friends (Trent & Chuck Taylor) vs. Myron Reed & Juventud Guerrera

7. Moose vs. Ace Romero

8. AAW Heavyweight Championship: Jake Something vs. Sami Callihan(c)

9. AAW Women’s Championship: Jessicka Havik vs. Kylie Rae(c)

General
Complete name : AAW.2019.03.16.Hell.Hath.No.Fury.720p.WEB.h264-iNDYHEEL.mp4
Format : MPEG-4
Format profile : Base Media
Codec ID : isom (isom/iso2/avc1/mp41)
File size : 2.69 GiB
Duration : 2 h 54 min
Overall bit rate mode : Variable
Overall bit rate : 2 203 kb/s
Writing application : Lavf58.23.101

Video
ID : 1
Format : AVC
Format/Info : Advanced Video Codec
Format profile : [email protected]
Format settings : CABAC / 3 Ref Frames
Format settings, CABAC : Yes
Format settings, Reference : 3 frames
Codec ID : avc1
Codec ID/Info : Advanced Video Coding
Duration : 2 h 54 min
Bit rate : 2 069 kb/s
Width : 1 280 pixels
Height : 720 pixels
Display aspect ratio : 16:9
Frame rate mode : Variable
Frame rate : 23.976 FPS
Color space : YUV
Chroma subsampling : 4:2:0
Bit depth : 8 bits
Scan type : Progressive
Bits/(Pixel*Frame) : 0.094
Stream size : 2.52 GiB (94%)
Codec configuration box : avcC

Audio
ID : 2
Format : AAC LC
Format/Info : Advanced Audio Codec Low Complexity
Codec ID : mp4a-40-2
Duration : 2 h 54 min
Bit rate mode : Variable
Bit rate : 128 kb/s
Maximum bit rate : 149 kb/s
Channel(s) : 2 channels
Channel layout : L R
Sampling rate : 48.0 kHz
Frame rate : 46.875 FPS (1024 SPF)
Compression mode : Lossy
Stream size : 160 MiB (6%)
Default : Yes
Alternate group : 1

AAW 2019 03 16 Hell Hath No Fury 720p [Re Uploaded]

dailyuploads

dailyuploads.net/1rbsk0cefyrv

nitroflare

nitroflare.com/view/676357F81B27B74

Rapidgator
rg.to/file/331537d3faf3ff79431dcfd4605afc17

1fichier.com/?6157mgcblllfdtd3cun1
bayfiles.com/rbcfgdwcn5
dl.free.fr/qWINXbDVQ
multiup.org/download/6a9a9e52ceaade86f9c48532bae7f600
uptobox.com/i2ne78yl2kvc

 119 total views,  1 views today

AAW 2019 03 16 Hell Hath No Fury 720p [Re Uploaded]

WH : Source OF Wrestling Releases / Home OF WH Releases

Buy Premium or Renew From WH Links to Keep it Alive

About PH.M.H

[Wrestling Best Uploader]

View all posts by PH.M.H →

Leave a Reply

Your email address will not be published. Required fields are marked *