AAW Bad Times At The Blue Genie 2019 720p

AAW 2019 05 31 Bad Times At The Blue Genie 720p WEB h264-NCMP

AAW Bad Times At The Blue Genie 2019 720p

AAW 2019 05 31 Bad Times At The Blue Genie 720p WEB h264-NCMP

Description5.31.19 – Bad Times At The Blue Genie (LIVE STREAM) – AAW Pro 
Video Duration: 03:15:08 

Bad Times At The Blue Genie (LIVE STREAM) 
5/31/19 
Blue Genie Art Bazaar 

PACO vs. Barrett Brown vs. Clayton Gainz vs. Kody Lane vs. Andy Dalton 

Thunder Rosa vs. Christi Jaynes 

Josh Alexander vs. Ace Austin (w/ Clayton Gainz) 

AAW Heritage Championship – Jake Something (c) vs. Jimmy Jacobs 

Eddie Kingston vs. Mance Warner 

The Rascalz vs. Besties In The World 

Ace Romero vs. Ryan Davidson 

AAW Women’s Championship – Jessicka Havok (c) vs. Priscilla Kelly 

AR Fox & Juventud Guerrera vs. Extra Talented 

AAW Heavyweight Championship – Sami Callihan (c) vs. Darby Allin 

General
Complete name : AAW.2019.05.31.Bad.Times.At.The.Blue.Genie.720p.WEB.h264-NCMP.mp4
Format : MPEG-4
Format profile : Base Media
Codec ID : isom (isom/iso2/avc1/mp41)
File size : 3.07 GiB
Duration : 3 h 15 min
Overall bit rate mode : Variable
Overall bit rate : 2 251 kb/s
Writing application : Lavf56.19.101

Video
ID : 1
Format : AVC
Format/Info : Advanced Video Codec
Format profile : [email protected]
Format settings : CABAC / 3 Ref Frames
Format settings, CABAC : Yes
Format settings, Reference : 3 frames
Codec ID : avc1
Codec ID/Info : Advanced Video Coding
Duration : 3 h 15 min
Bit rate : 2 114 kb/s
Width : 1 280 pixels
Height : 720 pixels
Display aspect ratio : 16:9
Frame rate mode : Variable
Frame rate : 29.970 FPS
Minimum frame rate : 29.940 FPS
Maximum frame rate : 90 000.000 FPS
Color space : YUV
Chroma subsampling : 4:2:0
Bit depth : 8 bits
Scan type : Progressive
Bits/(Pixel*Frame) : 0.077
Stream size : 2.88 GiB (94%)
Codec configuration box : avcC

Audio
ID : 2
Format : AAC LC
Format/Info : Advanced Audio Codec Low Complexity
Codec ID : mp4a-40-2
Duration : 3 h 15 min
Bit rate mode : Variable
Bit rate : 128 kb/s
Maximum bit rate : 131 kb/s
Channel(s) : 2 channels
Channel layout : L R
Sampling rate : 48.0 kHz
Frame rate : 46.875 FPS (1024 SPF)
Compression mode : Lossy
Stream size : 179 MiB (6%)
Default : Yes
Alternate group : 1

AAW Bad Times At The Blue Genie 2019 720p

1fichier.com/?pzdos5lvp27eobpadtc5
anonfile.com/0bHa64u8n4
bayfiles.com/PaHb6aufnc
bitster.cz/file/b725a9
dl.free.fr/gdXfpkcwt
file.bz/H8H669u6n4
filerio.in/k1zx3cc4nmh5
filescdn.net/bwjbboci5t1i
multiup.org/download/0feea90eff008316d3f5a37ee3526b52

nitroflare.com/view/3CF0DFE905AC13A
openload.co/f/RTjSWO4LoyY
rg.to/file/66a8a287ea4c58ddb98cffa14b036077
turbobit.net/ximn1din7j11.html

 90 total views,  1 views today

AAW Bad Times At The Blue Genie 2019 720p

WH : Source OF Wrestling Releases / Home OF WH Releases

Buy Premium or Renew From WH Links to Keep it Alive

About PH.M.H

[Wrestling Best Uploader]

View all posts by PH.M.H →

Leave a Reply

Your email address will not be published. Required fields are marked *