iMPACT Wrestling Over Drive 2019 540p / 720p -WH

iMPACT Wrestling Over Drive 2019 540p / 720p -WH

iMPACT Wrestling Over Drive 2019 540p / 720p -WH

iMPACT Wrestling Over Drive 2019 540p WEBRIP x264-WH

General
Complete name                    : 
iMPACT.Wrestling.Over.Drive.2019.540p.WEBRIP.x264-WH.mp4
Format                           : MPEG-4
Format profile                   : Base Media
Codec ID                         : isom
File size                        : 1.80 GiB
Duration                         : 3h 13mn
Overall bit rate                 : 1 334 Kbps
Encoded date                     : UTC 2019-09-26 20:46:25
Tagged date                      : UTC 2019-09-26 20:46:25
Writing application              : Lavf56.15.102

Video
ID                               : 1
Format                           : AVC
Format/Info                      : Advanced Video Codec
Format profile                   : [email protected]
Format settings, CABAC           : No
Format settings, ReFrames        : 2 frames
Codec ID                         : avc1
Codec ID/Info                    : Advanced Video Coding
Duration                         : 3h 13mn
Bit rate mode                    : Variable
Bit rate                         : 1 200 Kbps
Width                            : 960 pixels
Height                           : 540 pixels
Display aspect ratio             : 16:9
Frame rate mode                  : Constant
Frame rate                       : 29.970 fps
Color space                      : YUV
Chroma subsampling               : 4:2:0
Bit depth                        : 8 bits
Scan type                        : Progressive
Bits/(Pixel*Frame)               : 0.077
Stream size                      : 1.62 GiB (90%)
Writing library                  : x264 core 142
Language                         : English
Encoded date                     : UTC 2019-09-26 20:46:25
Tagged date                      : UTC 2019-09-26 20:46:25

Audio
ID                               : 2
Format                           : AAC
Format/Info                      : Advanced Audio Codec
Format profile                   : LC
Codec ID                         : 40
Duration                         : 3h 13mn
Bit rate mode                    : Constant
Bit rate                         : 128 Kbps
Channel(s)                       : 2 channels
Channel positions                : Front: L R
Sampling rate                    : 44.1 KHz
Compression mode                 : Lossy
Stream size                      : 177 MiB (10%)
Language                         : English
Encoded date                     : UTC 2019-09-26 20:46:25
Tagged date                      : UTC 2019-09-26 20:46:25

dropapk

https://dropapk.to/pua4fizzlgxf

earn4files
https://earn4files.com/q5y32tpzbn9d

fileup
https://fileup.cc/o5099vvfemke

nitroflare
http://nitroflare.com/view/EE36050D7677944

rapidgator
https://rapidgator.net/file/a00b421021ffec3b11ef741b2972ad0c

uploadgig
https://uploadgig.com/file/download/8b016EAaAde79c7c

iMPACT Wrestling Over Drive 2019 720p WEBRIP x264-WH

General
Complete name                    : 
iMPACT.Wrestling.Over.Drive.2019.720p.WEBRIP.x264-WH.mp4
Format                           : MPEG-4
Format profile                   : Base Media
Codec ID                         : isom
File size                        : 3.56 GiB
Duration                         : 3h 13mn
Overall bit rate                 : 2 633 Kbps
Encoded date                     : UTC 2019-09-26 20:46:25
Tagged date                      : UTC 2019-09-26 20:46:25
Writing application              : Lavf56.15.102

Video
ID                               : 1
Format                           : AVC
Format/Info                      : Advanced Video Codec
Format profile                   : [email protected]
Format settings, CABAC           : No
Format settings, ReFrames        : 2 frames
Codec ID                         : avc1
Codec ID/Info                    : Advanced Video Coding
Duration                         : 3h 13mn
Bit rate mode                    : Variable
Bit rate                         : 2 500 Kbps
Width                            : 1 280 pixels
Height                           : 720 pixels
Display aspect ratio             : 16:9
Frame rate mode                  : Constant
Frame rate                       : 29.970 fps
Color space                      : YUV
Chroma subsampling               : 4:2:0
Bit depth                        : 8 bits
Scan type                        : Progressive
Bits/(Pixel*Frame)               : 0.091
Stream size                      : 3.38 GiB (95%)
Writing library                  : x264 core 142
Language                         : English
Encoded date                     : UTC 2019-09-26 20:46:25
Tagged date                      : UTC 2019-09-26 20:46:25

Audio
ID                               : 2
Format                           : AAC
Format/Info                      : Advanced Audio Codec
Format profile                   : LC
Codec ID                         : 40
Duration                         : 3h 13mn
Bit rate mode                    : Constant
Bit rate                         : 128 Kbps
Channel(s)                       : 2 channels
Channel positions                : Front: L R
Sampling rate                    : 44.1 KHz
Compression mode                 : Lossy
Stream size                      : 177 MiB (5%)
Language                         : English
Encoded date                     : UTC 2019-09-26 20:46:25
Tagged date                      : UTC 2019-09-26 20:46:25

dropapk

https://dropapk.to/y37fqtd2513k

fileup
https://fileup.cc/yf59wrtxk2tg

nitroflare
http://nitroflare.com/view/923882977FFCC10

rapidgator
https://rapidgator.net/file/607693da3c2b10e447c31f2063eaff78

uploadgig
https://uploadgig.com/file/download/a975215Af986dB10

dropapk

https://dropapk.to/rnpif5un3qe7
https://dropapk.to/y7si825ghp5r
https://dropapk.to/eept6p94lry5
https://dropapk.to/9jtjxslaljut
https://dropapk.to/xhrc0iiimmil

earn4files
https://earn4files.com/n7i1thkaki95
https://earn4files.com/g9uptvw9gi8r
https://earn4files.com/e2eaarlbuopz
https://earn4files.com/yihlfnvv9ro5
https://earn4files.com/xiwjj3e6vfm8

katfile
http://katfile.com/cr7o05ndi6g2
http://katfile.com/s1b662x70wh3
http://katfile.com/yyi8eh4btzds
http://katfile.com/q07nm8ikjhrq
http://katfile.com/w46076kxf6i6

nitroflare
http://nitroflare.com/view/9FED4306748142E
http://nitroflare.com/view/2064D6A39EB2795
http://nitroflare.com/view/E6363231E67A306
http://nitroflare.com/view/C91D8462FAFBBBE
http://nitroflare.com/view/173C1A37B476967

upload
https://upload.ac/85utqcytt0ar
https://upload.ac/fi9miaj2npp1
https://upload.ac/v27ja24t734j
https://upload.ac/s5kqlp8zhtac
https://upload.ac/mwg8nxk5dt47

TNA Over Drive 10 November 2019

Preview : Impact Wrestling comes to Pennsylvania for two shows live on Impact+ and Twitch in cooperation with PPW in Hazelton and Scranton, PA. On Saturday, Turning Point returns for the first time in three years as new Impact World Champion Sami Callihan defends his title against Brian Cage in a rematch from last week’s edition of Impact! and premiere on AXS TV in the main event. Then on Sunday, Over Drive will take place as Sami Callihan faces Rhino in the main event. Here’s the lineups for the shows:

  • Sami Callihan vs. Rhino
  • Michael Elgin vs. Eddie Edwards vs. Brian Cage vs. Moose
  • Ace Austin vs. Fallah Bahh
  • Tessa Blanchard vs. Madison Rayne
  • Rich Swann vs. Jake Crist
  • Willie Mack vs. Mahabali Shera
  • The North (Ethan Page & Josh Alexander) will be in action!

Leave a Reply

Your email address will not be published. Required fields are marked *