iMPACT Wrestling Bound For Glory 2019 540p / 720p

iMPACT Wrestling Bound For Glory 2019 540p / 720p WEBRIP x264-WH

dOWNLOAD iMPACT Wrestling Bound For Glory 2019 540p / 720p

iMPACT Wrestling Bound For Glory 2019 540p / 720p

iMPACT Wrestling Bound For Glory 2019 720p WEBRIP x264-WH

General
Complete name                    : 
iMPACT.Wrestling.Bound.For.Glory.720p.WEBRIP.x264-WH.mp4
Format                           : MPEG-4
Format profile                   : Base Media
Codec ID                         : isom
File size                        : 3.16 GiB
Duration                         : 2h 55mn
Overall bit rate                 : 2 578 Kbps
Encoded date                     : UTC 2019-09-26 20:46:25
Tagged date                      : UTC 2019-09-26 20:46:25
Writing application              : Lavf56.15.102

Video
ID                               : 1
Format                           : AVC
Format/Info                      : Advanced Video Codec
Format profile                   : [email protected]
Format settings, CABAC           : No
Format settings, ReFrames        : 2 frames
Codec ID                         : avc1
Codec ID/Info                    : Advanced Video Coding
Duration                         : 2h 55mn
Bit rate mode                    : Variable
Bit rate                         : 2 500 Kbps
Width                            : 1 280 pixels
Height                           : 720 pixels
Display aspect ratio             : 16:9
Frame rate mode                  : Constant
Frame rate                       : 30.000 fps
Color space                      : YUV
Chroma subsampling               : 4:2:0
Bit depth                        : 8 bits
Scan type                        : Progressive
Bits/(Pixel*Frame)               : 0.090
Stream size                      : 3.00 GiB (95%)
Writing library                  : x264 core 142
Language                         : English
Encoded date                     : UTC 2019-09-26 20:46:25
Tagged date                      : UTC 2019-09-26 20:46:25

Audio
ID                               : 2
Format                           : AAC
Format/Info                      : Advanced Audio Codec
Format profile                   : LC
Codec ID                         : 40
Duration                         : 2h 55mn
Bit rate mode                    : Variable
Bit rate                         : 126 Kbps
Maximum bit rate                 : 128 Kbps
Channel(s)                       : 2 channels
Channel positions                : Front: L R
Sampling rate                    : 44.1 KHz
Compression mode                 : Lossy
Stream size                      : 159 MiB (5%)
Language                         : English
Encoded date                     : UTC 2019-09-26 20:46:25
Tagged date                      : UTC 2019-09-26 20:46:25
Size3.16 GB

nitroflare

https://nitroflare.com/view/95AF24C5A4176C4

earn4files

https://earn4files.com/5h7wehxahbvt

fileup
https://fileup.cc/nd1sss7hoiih

rapidgator
https://rapidgator.net/file/d9722ab063b01d17cc44604d6f3c9c32

upload
https://upload.ac/wmqpndav5bd4

clicknupload

https://clicknupload.org/3toa5tvet9so
https://clicknupload.org/qo2x1cymwk0p
https://clicknupload.org/em301faq4hth
https://clicknupload.org/9wjigdcvl6bm

earn4files

https://earn4files.com/d3i33z31t5ar
https://earn4files.com/7t3vsu2bsbpb
https://earn4files.com/bvhs7wr39odl
https://earn4files.com/0gszo3ev5avt

4downfile

https://4downfile.org/kup9darwnlgv
https://4downfile.org/a9dh7cs7wkcz
https://4downfile.org/hfm8hrxjda0k
https://4downfile.org/7lmxqsfqasrm

nitroflare

http://nitroflare.com/view/5AF473CF7C9F1F5
http://nitroflare.com/view/E8D4F8CAC168F49
http://nitroflare.com/view/53C828D18B8C8F9
http://nitroflare.com/view/99C526DB4464F61

iMPACT Wrestling Bound For Glory 2019 540p WEBRIP x264-WH

General
Complete name                    : 
iMPACT.Wrestling.Bound.For.Glory.2019.540p.WEBRIP.x264-WH.mp4
Format                           : MPEG-4
Format profile                   : Base Media
Codec ID                         : isom
File size                        : 1.60 GiB
Duration                         : 2h 55mn
Overall bit rate                 : 1 307 Kbps
Encoded date                     : UTC 2019-09-26 20:46:25
Tagged date                      : UTC 2019-09-26 20:46:25
Writing application              : Lavf56.15.102

Video
ID                               : 1
Format                           : AVC
Format/Info                      : Advanced Video Codec
Format profile                   : [email protected]
Format settings, CABAC           : No
Format settings, ReFrames        : 2 frames
Codec ID                         : avc1
Codec ID/Info                    : Advanced Video Coding
Duration                         : 2h 55mn
Bit rate mode                    : Variable
Bit rate                         : 1 200 Kbps
Width                            : 960 pixels
Height                           : 540 pixels
Display aspect ratio             : 16:9
Frame rate mode                  : Constant
Frame rate                       : 30.000 fps
Color space                      : YUV
Chroma subsampling               : 4:2:0
Bit depth                        : 8 bits
Scan type                        : Progressive
Bits/(Pixel*Frame)               : 0.077
Stream size                      : 1.44 GiB (90%)
Writing library                  : x264 core 142
Language                         : English
Encoded date                     : UTC 2019-09-26 20:46:25
Tagged date                      : UTC 2019-09-26 20:46:25

Audio
ID                               : 2
Format                           : AAC
Format/Info                      : Advanced Audio Codec
Format profile                   : LC
Codec ID                         : 40
Duration                         : 2h 55mn
Bit rate mode                    : Variable
Bit rate                         : 126 Kbps
Maximum bit rate                 : 128 Kbps
Channel(s)                       : 2 channels
Channel positions                : Front: L R
Sampling rate                    : 44.1 KHz
Compression mode                 : Lossy
Stream size                      : 159 MiB (10%)
Language                         : English
Encoded date                     : UTC 2019-09-26 20:46:25
Tagged date                      : UTC 2019-09-26 20:46:25

4downfile

https://4downfile.org/sx9ttckzyplo

earn4files
https://earn4files.com/5fxq9d6u7cge

fileup
https://fileup.cc/69944btxpvzk

nitroflare
http://nitroflare.com/view/BF3CCEC44DAEE60

rapidgator
https://rapidgator.net/file/279ca2a0fe76023a0e2d16df3ffb021c

upload
https://upload.ac/es8jqqcvspwi

One Comment on “iMPACT Wrestling Bound For Glory 2019 540p / 720p”

Leave a Reply

Your email address will not be published. Required fields are marked *