iMPACT Wrestling 2019 10 04 540p / 1080p -HEEL

iMPACT Wrestling 2019 10 04 540p / 1080p -HEEL

dOWNLOAD iMPACT Wrestling 2019 10 04 540p / 1080p -HEEL

iMPACT Wrestling 2019 10 04 540p / 1080p -HEEL

iMPACT.Wrestling.2019.10.04.WEB.h264-HEEL

General
Complete name : iMPACT.Wrestling.2019.10.04.WEB.h264-HEEL.mp4
Format : MPEG-4
Format profile : Base Media
Codec ID : isom
File size : 918 MiB
Duration : 1h 31mn
Overall bit rate : 1 401 Kbps
Writing application : Lavf58.30.100

Video
ID : 1
Format : AVC
Format/Info : Advanced Video Codec
Format profile : [email protected]
Format settings, CABAC : Yes
Format settings, ReFrames : 4 frames
Codec ID : avc1
Codec ID/Info : Advanced Video Coding
Duration : 1h 31mn
Bit rate mode : Variable
Bit rate : 1 201 Kbps
Width : 960 pixels
Height : 540 pixels
Display aspect ratio : 16:9
Frame rate mode : Constant
Frame rate : 29.970 fps
Color space : YUV
Chroma subsampling : 4:2:0
Bit depth : 8 bits
Scan type : Progressive
Bits/(Pixel*Frame) : 0.077
Stream size : 787 MiB (86%)
Writing library : Zencoder Video Encoding System
Color primaries : BT.709-5, BT.1361, IEC 61966-2-4, SMPTE RP177
Transfer characteristics : BT.709-5, BT.1361
Matrix coefficients : BT.709-5, BT.1361, IEC 61966-2-4 709, SMPTE RP177

Audio
ID : 2
Format : AAC
Format/Info : Advanced Audio Codec
Format profile : LC
Codec ID : 40
Duration : 1h 31mn
Bit rate mode : Constant
Bit rate : 192 Kbps
Channel(s) : 2 channels
Channel positions : Front: L R
Sampling rate : 48.0 KHz
Compression mode : Lossy
Stream size : 125 MiB (14%)

https://fileup.cc/e79zfp5httwc
http://nitroflare.com/view/0F8074594E1F980
https://rapidgator.net/file/1121cbf1b916bad73199acdeabf84635
https://upload.ac/zoa4mlgh1220
https://uploadgig.com/file/download/3472154Aff7bf783
https://userscloud.com/3bk6s1mqm0q5

https://4downfiles.org/ubtg4lk6n6y8
https://earn4files.com/b2aaa7r7pe54

iMPACT.Wrestling.2019.10.04.1080p.WEB.h264-HEEL

General
Complete name : iMPACT.Wrestling.2019.10.04.1080p.WEB.h264-HEEL.mp4
Format : MPEG-4
Format profile : Base Media
Codec ID : isom
File size : 2.36 GiB
Duration : 1h 31mn
Overall bit rate : 3 692 Kbps
Encoded date : UTC 2019-10-03 23:42:41
Tagged date : UTC 2019-10-03 23:42:41

Video
ID : 1
Format : AVC
Format/Info : Advanced Video Codec
Format profile : [email protected]
Format settings, CABAC : Yes
Format settings, ReFrames : 4 frames
Codec ID : avc1
Codec ID/Info : Advanced Video Coding
Duration : 1h 31mn
Bit rate mode : Variable
Bit rate : 3 497 Kbps
Maximum bit rate : 8 585 Kbps
Width : 1 920 pixels
Height : 1 080 pixels
Display aspect ratio : 16:9
Frame rate mode : Constant
Frame rate : 29.970 fps
Color space : YUV
Chroma subsampling : 4:2:0
Bit depth : 8 bits
Scan type : Progressive
Bits/(Pixel*Frame) : 0.056
Stream size : 2.24 GiB (95%)
Writing library : Zencoder Video Encoding System
Encoded date : UTC 2019-10-03 23:18:36
Tagged date : UTC 2019-10-03 23:42:44
Color primaries : BT.709-5, BT.1361, IEC 61966-2-4, SMPTE RP177
Transfer characteristics : BT.709-5, BT.1361
Matrix coefficients : BT.709-5, BT.1361, IEC 61966-2-4 709, SMPTE RP177

Audio
ID : 2
Format : AAC
Format/Info : Advanced Audio Codec
Format profile : LC
Codec ID : 40
Duration : 1h 31mn
Bit rate mode : Variable
Bit rate : 192 Kbps
Maximum bit rate : 222 Kbps
Channel(s) : 2 channels
Channel positions : Front: L R
Sampling rate : 48.0 KHz
Compression mode : Lossy
Stream size : 125 MiB (5%)
Language : English
Encoded date : UTC 2019-10-03 22:55:58
Tagged date : UTC 2019-10-03 23:42:44

https://4downfiles.org/mi10rj12u9qn
https://earn4files.com/sarz58vvzrob
https://fileup.cc/15cmdkyvwvoc
http://nitroflare.com/view/44B331B070E1AC5
https://rapidgator.net/file/74f79539bad808c989efc03e75fd38e9
https://uploadgig.com/file/download/cDD614d41f737c55
https://userscloud.com/8bz4sbbh2b84

4downfiles

https://4downfiles.org/48quafabkl18
https://4downfiles.org/ht75ubp85r96
https://4downfiles.org/anqazdrnlots

earn4files
https://earn4files.com/pavji5cg20ua
https://earn4files.com/6cqps84huecu
https://earn4files.com/fkkpgz6ef4lr

Leave a Reply

Your email address will not be published. Required fields are marked *