iMPACT Wrestling 2019 09 06 [VIP USERs]

iMPACT Wrestling 2019 09 06 WEB h264-HEEL / 1080p

General
Complete name : iMPACT.Wrestling.2019.09.06.WEB.h264-HEEL.mp4
Format : MPEG-4
Format profile : Base Media
Codec ID : isom
File size : 916 MiB
Duration : 1h 31mn
Overall bit rate : 1 401 Kbps
Writing application : Lavf58.30.100

Video
ID : 1
Format : AVC
Format/Info : Advanced Video Codec
Format profile : [email protected]
Format settings, CABAC : Yes
Format settings, ReFrames : 4 frames
Codec ID : avc1
Codec ID/Info : Advanced Video Coding
Duration : 1h 31mn
Bit rate mode : Variable
Bit rate : 1 200 Kbps
Width : 960 pixels
Height : 540 pixels
Display aspect ratio : 16:9
Frame rate mode : Constant
Frame rate : 29.970 fps
Color space : YUV
Chroma subsampling : 4:2:0
Bit depth : 8 bits
Scan type : Progressive
Bits/(Pixel*Frame) : 0.077
Stream size : 785 MiB (86%)
Writing library : Zencoder Video Encoding System
Color primaries : BT.709-5, BT.1361, IEC 61966-2-4, SMPTE RP177
Transfer characteristics : BT.709-5, BT.1361
Matrix coefficients : BT.709-5, BT.1361, IEC 61966-2-4 709, SMPTE RP177

Audio
ID : 2
Format : AAC
Format/Info : Advanced Audio Codec
Format profile : LC
Codec ID : 40
Duration : 1h 31mn
Bit rate mode : Constant
Bit rate : 192 Kbps
Channel(s) : 2 channels
Channel positions : Front: L R
Sampling rate : 48.0 KHz
Compression mode : Lossy
Stream size : 126 MiB (14%)

DOWNLOAD

https://1fichier.com/?ag5hasgn58ns9o6lu29h
https://dl.bdupload.in/bw4nkbz8i8rb
http://dl.free.fr/kkpbBKDfk
https://multiup.org/download/ce6d6707dde61ab9ee02c6e0bd3dc0f5
https://uptomega.com/oi5yhrfkrkyl
https://userscloud.com/i8b48pcram5z

General
Complete name : iMPACT.Wrestling.2019.09.06.1080p.WEB.h264-HEEL.mp4
Format : MPEG-4
Format profile : Base Media
Codec ID : isom
File size : 2.36 GiB
Duration : 1h 31mn
Overall bit rate : 3 689 Kbps
Encoded date : UTC 2019-09-06 15:25:27
Tagged date : UTC 2019-09-06 15:25:27

Video
ID : 1
Format : AVC
Format/Info : Advanced Video Codec
Format profile : [email protected]
Format settings, CABAC : Yes
Format settings, ReFrames : 4 frames
Codec ID : avc1
Codec ID/Info : Advanced Video Coding
Duration : 1h 31mn
Bit rate mode : Variable
Bit rate : 3 493 Kbps
Maximum bit rate : 9 078 Kbps
Width : 1 920 pixels
Height : 1 080 pixels
Display aspect ratio : 16:9
Frame rate mode : Constant
Frame rate : 29.970 fps
Color space : YUV
Chroma subsampling : 4:2:0
Bit depth : 8 bits
Scan type : Progressive
Bits/(Pixel*Frame) : 0.056
Stream size : 2.23 GiB (95%)
Writing library : Zencoder Video Encoding System
Encoded date : UTC 2019-09-06 14:58:58
Tagged date : UTC 2019-09-06 15:25:30
Color primaries : BT.709-5, BT.1361, IEC 61966-2-4, SMPTE RP177
Transfer characteristics : BT.709-5, BT.1361
Matrix coefficients : BT.709-5, BT.1361, IEC 61966-2-4 709, SMPTE RP177

Audio
ID : 2
Format : AAC
Format/Info : Advanced Audio Codec
Format profile : LC
Codec ID : 40
Duration : 1h 31mn
Bit rate mode : Variable
Bit rate : 192 Kbps
Maximum bit rate : 222 Kbps
Channel(s) : 2 channels
Channel positions : Front: L R
Sampling rate : 48.0 KHz
Compression mode : Lossy
Stream size : 126 MiB (5%)
Language : English
Encoded date : UTC 2019-09-06 14:30:21
Tagged date : UTC 2019-09-06 15:25:30

DOWNLOAD

https://1fichier.com/?t99qsm5z19pqk7rfsopl
http://dl.free.fr/f2zaLe6cz
https://multiup.org/download/7b45317582e802a4a1f5454d0291279b
https://userscloud.com/zjo9y5nccj97

Leave a Reply

Your email address will not be published. Required fields are marked *