iMPACT Wrestling 2019 06 07 1080p WEB h264-HEEL

iMPACT Wrestling 2019 06 07 1080p WEB h264-HEEL

iMPACT Wrestling 2019 06 07 1080p WEB h264-HEEL

General
Complete name : iMPACT.Wrestling.2019.06.07.1080p.WEB.h264-HEEL.mp4
Format : MPEG-4
Format profile : Base Media
Codec ID : isom (isom/avc1/mp42)
File size : 2.35 GiB
Duration : 1 h 31 min
Overall bit rate mode : Variable
Overall bit rate : 3 681 kb/s
Encoded date : UTC 2019-06-06 16:51:41
Tagged date : UTC 2019-06-06 16:51:41

Video
ID : 1
Format : AVC
Format/Info : Advanced Video Codec
Format profile : [email protected]
Format settings : CABAC / 4 Ref Frames
Format settings, CABAC : Yes
Format settings, Reference : 4 frames
Codec ID : avc1
Codec ID/Info : Advanced Video Coding
Duration : 1 h 31 min
Bit rate : 3 485 kb/s
Maximum bit rate : 7 713 kb/s
Width : 1 920 pixels
Height : 1 080 pixels
Display aspect ratio : 16:9
Frame rate mode : Constant
Frame rate : 29.970 (30000/1001) FPS
Color space : YUV
Chroma subsampling : 4:2:0
Bit depth : 8 bits
Scan type : Progressive
Bits/(Pixel*Frame) : 0.056
Stream size : 2.22 GiB (95%)
Writing library : Zencoder Video Encoding System
Encoded date : UTC 2019-06-06 16:34:49
Tagged date : UTC 2019-06-06 16:51:44
Color range : Limited
Color primaries : BT.709
Transfer characteristics : BT.709
Matrix coefficients : BT.709
Codec configuration box : avcC

Audio
ID : 2
Format : AAC LC
Format/Info : Advanced Audio Codec Low Complexity
Codec ID : mp4a-40-2
Duration : 1 h 31 min
Bit rate mode : Variable
Bit rate : 192 kb/s
Maximum bit rate : 224 kb/s
Channel(s) : 2 channels
Channel layout : L R
Sampling rate : 48.0 kHz
Frame rate : 46.875 FPS (1024 SPF)
Compression mode : Lossy
Stream size : 125 MiB (5%)
Encoded date : UTC 2019-06-06 16:18:31
Tagged date : UTC 2019-06-06 16:51:44

Archive [Master of Hosts]

download from [here]

filetransfer [Recommended by me]

https://filetransfer.io/data-package/8jvqsZlg

https://1fichier.com/?6b2yxxrrpw1fo637e2f5
https://anonfile.com/j9c516u0n9
https://bitster.cz/file/2b693f
http://dl.free.fr/fNCpxCuhQ
https://file.bz/F7de1au2nc
http://www.filefactory.com/file/68oe0ly43s59
https://filerio.in/gpp0agbsituh
https://filescdn.net/s91xoxp0qm7o
http://nitroflare.com/view/F18507B6ED61326/iMPACT.Wrestling.2019.06.07.1080p.WEB.h264-HEEL.mp4
https://openload.co/f/hGXwZ5wY_4A/iMPACT.Wrestling.2019.06.07.1080p.WEB.h264-HEEL.mp4
https://rg.to/file/11b8a36ab3914d4eac3e3ebbb470c32b
https://turbobit.net/g701y1e7cyy3.html

Leave a Reply

Your email address will not be published. Required fields are marked *