iMPACT Wrestling 2019 05 31 720p WEB h264-WH

iMPACT Wrestling 2019 05 31 720p WEB h264-WH
iMPACT Wrestling 2019 05 31 720p WEB h264-WH

Name – iMPACT.Wrestling.2019.05.31.720p.WEB.h264-WH
Released – 05.31.2019
Aired – 05.31.2019
SOURCE – 1080p.HEEL
Size – 1.67 GB
Container – MP4
Resolution – 1280 x 720 (16:9) @ 25 FPS
Video – x264 @ 2500 KBPS
Audio – AAC 128 KBPS
Length – 01:31:22
Encoder – WH Crew

General
Complete name : iMPACT.Wrestling.2019.05.31.720p.WEB.h264-WH.mp4
Format : MPEG-4
Format profile : Base Media
Codec ID : isom (isom/iso2/avc1/mp41)
File size : 1.68 GiB
Duration : 1 h 31 min
Overall bit rate : 2 633 kb/s
Encoded date : UTC 2019-05-31 20:54:51
Tagged date : UTC 2019-05-31 20:54:51
Writing application : Lavf56.15.102

Video
ID : 1
Format : AVC
Format/Info : Advanced Video Codec
Format profile : [email protected]
Format settings : 2 Ref Frames
Format settings, CABAC : No
Format settings, Reference : 2 frames
Codec ID : avc1
Codec ID/Info : Advanced Video Coding
Duration : 1 h 31 min
Bit rate : 2 500 kb/s
Width : 1 280 pixels
Height : 720 pixels
Display aspect ratio : 16:9
Frame rate mode : Constant
Frame rate : 25.000 FPS
Color space : YUV
Chroma subsampling : 4:2:0
Bit depth : 8 bits
Scan type : Progressive
Bits/(Pixel*Frame) : 0.109
Stream size : 1.60 GiB (95%)
Writing library : x264 core 142
Encoded date : UTC 2019-05-31 20:54:51
Tagged date : UTC 2019-05-31 20:54:51
Codec configuration box : avcC

Audio
ID : 2
Format : AAC LC
Format/Info : Advanced Audio Codec Low Complexity
Codec ID : mp4a-40-2
Duration : 1 h 31 min
Duration_LastFrame : -1 ms
Bit rate mode : Constant
Bit rate : 128 kb/s
Channel(s) : 2 channels
Channel layout : L R
Sampling rate : 44.1 kHz
Frame rate : 43.066 FPS (1024 SPF)
Compression mode : Lossy
Stream size : 83.6 MiB (5%)
Default : Yes
Alternate group : 1
Encoded date : UTC 2019-05-31 20:54:51
Tagged date : UTC 2019-05-31 20:54:51

https://1fichier.com/?iesi84ci97j70qhj18r8
https://anonfile.com/dfz985tanc
https://bayfiles.com/5bD580t4nd
https://bitster.cz/file/bc8e2d
https://ddl.to/yat7xper3dc4
http://dl.free.fr/gIKgoPEzA
https://file.bz/M65989t9n5
http://www.filefactory.com/file/1txci1ubrmqb
https://filerio.in/stygtfuhqbhi
https://filescdn.net/6j8847amlqo8
https://multiup.org/download/606ec6a672d49ee3ee5328cdf730e42e
http://nitroflare.com/view/14D689F541E8019
https://openload.co/f/n5YPwChtDho
https://rg.to/file/d800fc08e5b2819432afcc0a87ad4884
https://turbobit.net/o2osri5uzupm.html

Leave a Reply

Your email address will not be published. Required fields are marked *