iMPACT Wrestling 2019 05 24 720p WEB h264-WH

iMPACT Wrestling 2019 05 24 720p WEB h264-WH

iMPACT Wrestling 2019 05 24 720p WEB h264-WH

iMPACT.Wrestling.2019.05.24.720p.WEB.h264-WH

Name – iMPACT.Wrestling.2019.05.24.720p.WEB.h264-WH
Released – 05.24.2019
Aired – 05.24.2019
SOURCE – 1080p.HEEL
Size – 1.68 GB
Container – MP4
Resolution – 1280 x 720 (16:9) @ 25 FPS
Video – x264 @ 2500 KBPS
Audio – AAC 128 KBPS
Length – 01:31:17
Encoder – WH Crew

General
Complete name : iMPACT.Wrestling.2019.05.24.720p.WEB.h264-WH.mp4
Format : MPEG-4
Format profile : Base Media
Codec ID : isom (isom/iso2/avc1/mp41)
File size : 1.68 GiB
Duration : 1 h 31 min
Overall bit rate : 2 637 kb/s
Encoded date : UTC 2019-05-24 22:16:45
Tagged date : UTC 2019-05-24 22:16:45
Writing application : Lavf56.15.102

Video
ID : 1
Format : AVC
Format/Info : Advanced Video Codec
Format profile : [email protected]
Format settings : 2 Ref Frames
Format settings, CABAC : No
Format settings, Reference : 2 frames
Codec ID : avc1
Codec ID/Info : Advanced Video Coding
Duration : 1 h 31 min
Bit rate : 2 500 kb/s
Width : 1 280 pixels
Height : 720 pixels
Display aspect ratio : 16:9
Frame rate mode : Constant
Frame rate : 25.000 FPS
Color space : YUV
Chroma subsampling : 4:2:0
Bit depth : 8 bits
Scan type : Progressive
Bits/(Pixel*Frame) : 0.109
Stream size : 1.60 GiB (95%)
Writing library : x264 core 142
Encoded date : UTC 2019-05-24 22:16:45
Tagged date : UTC 2019-05-24 22:16:45
Codec configuration box : avcC

Audio
ID : 2
Format : AAC LC
Format/Info : Advanced Audio Codec Low Complexity
Codec ID : mp4a-40-2
Duration : 1 h 31 min
Duration_LastFrame : -22 ms
Bit rate mode : Constant
Bit rate : 128 kb/s
Channel(s) : 2 channels
Channel layout : L R
Sampling rate : 44.1 kHz
Frame rate : 43.066 FPS (1024 SPF)
Compression mode : Lossy
Stream size : 83.6 MiB (5%)
Default : Yes
Alternate group : 1
Encoded date : UTC 2019-05-24 22:16:45
Tagged date : UTC 2019-05-24 22:16:45

https://1fichier.com/?60evnq1kaof5eee8ua5l
https://anonfile.com/kevcKas5n6
https://bayfiles.com/Dav7Kds5n7
https://bitster.cz/file/3392b4
https://ddl.to/ywkcwv1ihqj7
http://dl.free.fr/oB6BLRbGi
https://file.bz/C1vaKesand
http://www.filefactory.com/file/63o3tisatljb
https://filerio.in/blvl4vmsn4nd
https://filescdn.net/v4lsqehbe5my
https://multiup.org/download/b65cbd2d2c583b920486c83b4a6195a9
http://www.netshare.cz/ee0a1fbe09284967
http://nitroflare.com/view/B466881CA06A196
https://openload.co/f/XGgPLWRf98Y
https://turbobit.net/z4596lu3l2k3.html
https://uploadgig.com/file/download/339883aE06d26bFb

Leave a Reply

Your email address will not be published.