iMPACT Wrestling 2019 05 24 1080p WEB h264-HEEL

iMPACT Wrestling 2019 05 24 1080p WEB h264-HEEL

iMPACT Wrestling 2019 05 24 1080p WEB h264-HEEL

General
Complete name : iMPACT.Wrestling.2019.05.24.1080p.WEB.h264-HEEL.mp4
Format : MPEG-4
Format profile : Base Media
Codec ID : isom (isom/avc1/mp42)
File size : 2.35 GiB
Duration : 1 h 31 min
Overall bit rate mode : Variable
Overall bit rate : 3 682 kb/s
Encoded date : UTC 2019-05-24 22:16:45
Tagged date : UTC 2019-05-24 22:16:45

Video
ID : 1
Format : AVC
Format/Info : Advanced Video Codec
Format profile : [email protected]
Format settings : CABAC / 4 Ref Frames
Format settings, CABAC : Yes
Format settings, Reference : 4 frames
Codec ID : avc1
Codec ID/Info : Advanced Video Coding
Duration : 1 h 31 min
Bit rate : 3 486 kb/s
Maximum bit rate : 8 791 kb/s
Width : 1 920 pixels
Height : 1 080 pixels
Display aspect ratio : 16:9
Frame rate mode : Constant
Frame rate : 29.970 (30000/1001) FPS
Color space : YUV
Chroma subsampling : 4:2:0
Bit depth : 8 bits
Scan type : Progressive
Bits/(Pixel*Frame) : 0.056
Stream size : 2.22 GiB (95%)
Writing library : Zencoder Video Encoding System
Encoded date : UTC 2019-05-24 22:01:39
Tagged date : UTC 2019-05-24 22:16:47
Color range : Limited
Color primaries : BT.709
Transfer characteristics : BT.709
Matrix coefficients : BT.709
Codec configuration box : avcC

Audio
ID : 2
Format : AAC LC
Format/Info : Advanced Audio Codec Low Complexity
Codec ID : mp4a-40-2
Duration : 1 h 31 min
Bit rate mode : Variable
Bit rate : 192 kb/s
Maximum bit rate : 231 kb/s
Channel(s) : 2 channels
Channel layout : L R
Sampling rate : 48.0 kHz
Frame rate : 46.875 FPS (1024 SPF)
Compression mode : Lossy
Stream size : 125 MiB (5%)
Encoded date : UTC 2019-05-24 21:41:38
Tagged date : UTC 2019-05-24 22:16:47

https://1fichier.com/?irpamwysbgu8y4o9lp98
https://anonfile.com/QaleK8s7n0
https://bitster.cz/file/25cade
http://dl.free.fr/i5a73E4Ov
http://www.filefactory.com/file/1fbw8w1vohdb
https://filerio.in/a9jgsz0ngmu0
https://filescdn.net/p8g9hmq4hdpb
https://multiup.org/download/4d9664af38e37b25fb5deb6ff23855db
https://uploadgig.com/file/download/1dAb07d99963b93b

https://bayfiles.com/leo3K0sfnc
https://file.bz/U6n6Kas2nc
http://nitroflare.com/view/1F404D5CB162EDF
https://openload.co/f/1NmYw76koDs
https://turbobit.net/y2b5iznytjgi.html

Leave a Reply

Your email address will not be published. Required fields are marked *