IMPACT.Wrestling.2019.03.22.HDTV.HEVC.x265-WH

IMPACT.Wrestling.2019.03.22.HDTV.HEVC.x265-WH

IMPACT.Wrestling.2019.03.22.HDTV.HEVC.x265-WH

General
Complete name : IMPACT.Wrestling.2019.03.22.HDTV.HEVC.x265-WH.mp4
Format : MPEG-4
Format profile : QuickTime
Codec ID : qt
File size : 1.06 GiB
Duration : 1h 30mn
Overall bit rate : 1 672 Kbps
Writing application : Lavf55.33.100

Video
ID : 1
Format : hev1
Codec ID : hev1
Duration : 1h 30mn
Bit rate mode : Variable
Bit rate : 1 539 Kbps
Width : 712 pixels
Height : 400 pixels
Display aspect ratio : 16:9
Frame rate mode : Constant
Frame rate : 25.000 fps
Bits/(Pixel*Frame) : 0.216
Stream size : 1 002 MiB (92%)
Language : English

Audio
ID : 2
Format : AAC
Format/Info : Advanced Audio Codec
Format profile : LC
Codec ID : 40
Duration : 1h 30mn
Bit rate mode : Constant
Bit rate : 128 Kbps
Channel(s) : 2 channels
Channel positions : Front: L R
Sampling rate : 44.1 KHz
Compression mode : Lossy
Stream size : 83.3 MiB (8%)
Language : English

ONE LINK DOWNLOAD

1fichier.com

https://shrt10.com/nxo6

anonfile.com

https://shrt10.com/a93k

ddl.to

https://shrt10.com/I5W2BA

dl.free.fr

https://shrt10.com/lTEGnlAz

filerio.in

https://shrt10.com/iTl5C3F

filestore.to

https://shrt10.com/5wc5eC

About PH.M.H

[Wrestling Best Uploader]

View all posts by PH.M.H

Leave a Reply

Your email address will not be published. Required fields are marked *