Highspots Shoot Interview – Joey Janela

Highspots Shoot Interview – Joey Janela

dOWNLOAD Highspots Shoot Interview – Joey Janela

Highspots Shoot Interview - Joey Janela
Joey Janela is the “Bad Boy” of professional wrestling and Highspots sits down with the Bad Boy moments after his historic main event with Jeff Hart after $5 Wrestling Carolina Stampede. We go in depth with Joey from his not so humble beginnings of BS’ing his way into the business up until signing with All Elite Wrestling. Hear Joeys thoughts on CZW owner DJ Hyde and all the background info on his Spring Break shows. Joey is one of the top 5 wrestlers in the world (according to his Twitter) and not does he deliver in the ring but also in this “shoot” interview like you wouldn’t believe.

Topics Discussed:
CZW
GCW
AEW
Breaking In
His love of Wrestling
and much more!!!!
General
Complete name                            : Highspots.Shoot.Joey.Janela.mp4
Format                                   : MPEG-4
Format profile                           : Base Media
Codec ID                                 : isom (isom/iso2/avc1/mp41)
File size                                : 1.58 GiB
Duration                                 : 1 h 38 min
Overall bit rate                         : 2 297 kb/s
Encoded date                             : UTC 1904-01-01 00:00:00
Tagged date                              : UTC 1904-01-01 00:00:00
Writing application                      : Lavf58.20.100

Video
ID                                       : 1
Format                                   : AVC
Format/Info                              : Advanced Video Codec
Format profile                           : [email protected]
Format settings, CABAC                   : Yes
Format settings, ReFrames                : 3 frames
Codec ID                                 : avc1
Codec ID/Info                            : Advanced Video Coding
Duration                                 : 1 h 38 min
Bit rate                                 : 2 095 kb/s
Width                                    : 1 280 pixels
Height                                   : 720 pixels
Display aspect ratio                     : 16:9
Frame rate mode                          : Variable
Frame rate                               : 29.970 FPS
Color space                              : YUV
Chroma subsampling                       : 4:2:0
Bit depth                                : 8 bits
Scan type                                : Progressive
Bits/(Pixel*Frame)                       : 0.076
Stream size                              : 1.44 GiB (91%)
Encoded date                             : UTC 1904-01-01 00:00:00
Tagged date                              : UTC 1904-01-01 00:00:00

Audio
ID                                       : 2
Format                                   : AAC
Format/Info                              : Advanced Audio Codec
Format profile                           : LC
Codec ID                                 : 40
Duration                                 : 1 h 38 min
Bit rate mode                            : Constant
Bit rate                                 : 192 kb/s
Channel(s)                               : 2 channels
Channel positions                        : Front: L R
Sampling rate                            : 48.0 kHz
Frame rate                               : 46.875 FPS (1024 spf)
Compression mode                         : Lossy
Stream size                              : 135 MiB (8%)
Default                                  : Yes
Alternate group                          : 1
Encoded date                             : UTC 1904-01-01 00:00:00
Tagged date                              : UTC 1904-01-01 00:00:00

https://4downfiles.org/rfxdqi03fdq8
https://earn4files.com/exclqy95vyr8
https://fileup.cc/erdj4tz2q1q8
https://multiup.org/download/4066534d11f9db6c0a2f2e74f02c95d5
http://nitroflare.com/view/FAF54FD2F72B594
https://rapidgator.net/file/00cee2c78e4025ea1463ab45e4c3c47c
https://uploadgig.com/file/download/A59470088371Cda0
https://uptobox.com/yeqelv3qu7t8
https://userscloud.com/0mj72lj9u3ru

Leave a Reply

Your email address will not be published. Required fields are marked *