GLORY 68 Miami Prelims

GLORY 68 Miami Prelims

dOWNLOAD GLORY 68 Miami Prelims

GLORY 68 Miami Prelims

Description

Fight card :

Ross Levine vs Sean Choice
Nick Chasteen vs Keemaan Diop

General
Complete name : GLORY 68 Miami Prelims.mp4
Format : MPEG-4
Format profile : Base Media / Version 2
Codec ID : mp42
File size : 626 MiB
Duration : 43mn 48s
Overall bit rate : 1 997 Kbps
Encoded date : UTC 2019-09-28 23:24:29
Tagged date : UTC 2019-09-28 23:24:29
gsst : 0
gstd : 2628197

Video
ID : 1
Format : AVC
Format/Info : Advanced Video Codec
Format profile : [email protected]
Format settings, CABAC : Yes
Format settings, ReFrames : 3 frames
Codec ID : avc1
Codec ID/Info : Advanced Video Coding
Duration : 43mn 48s
Bit rate mode : Variable
Bit rate : 1 866 Kbps
Width : 1 280 pixels
Height : 720 pixels
Display aspect ratio : 16:9
Frame rate mode : Constant
Frame rate : 29.970 fps
Color space : YUV
Chroma subsampling : 4:2:0
Bit depth : 8 bits
Scan type : Progressive
Bits/(Pixel*Frame) : 0.068
Stream size : 585 MiB (93%)
Encoded date : UTC 2019-09-28 23:24:29
Tagged date : UTC 2019-09-28 23:24:29
Color primaries : BT.709-5, BT.1361, IEC 61966-2-4, SMPTE RP177
Transfer characteristics : BT.709-5, BT.1361
Matrix coefficients : BT.709-5, BT.1361, IEC 61966-2-4 709, SMPTE RP177

Audio
ID : 2
Format : AAC
Format/Info : Advanced Audio Codec
Format profile : LC
Codec ID : 40
Duration : 43mn 48s
Bit rate mode : Variable
Bit rate : 128 Kbps
Channel(s) : 2 channels
Channel positions : Front: L R
Sampling rate : 44.1 KHz
Compression mode : Lossy
Stream size : 40.1 MiB (6%)
Encoded date : UTC 2019-09-28 23:24:29
Tagged date : UTC 2019-09-28 23:24:29

https://1fichier.com/?j623hmtl3mlpz2uxtyz5
https://4downfiles.org/p6ii8vvd4s6x
https://dl.bdupload.in/pu4zhoo6x2gs
http://dl.free.fr/fPOe58MiI
https://earn4files.com/4h4sen8qeww5
https://fileup.cc/e4402q5sptqq
https://multiup.org/download/e68381e34b55e0f0dbdacb0904a0f022
http://nitroflare.com/view/347652462C75819
https://rapidgator.net/file/3b1752a8e9f1e3a56b8e1bd6765845f7
https://upload.ac/8fyseq0nbwqv
https://uploadgig.com/file/download/ca2294eC54a8e262
https://uptomega.com/orrjdfggf1si
https://userscloud.com/vix81wnq2n1y

Leave a Reply

Your email address will not be published. Required fields are marked *