GCW Curtain Call Farewell to Joey Janela 2019 WEBRIP x264-WH

GCW Curtain Call Farewell to Joey Janela 2019 WEBRIP x264-WH

GCW Curtain Call Farewell to Joey Janela 2019 WEBRIP x264-WH

General
Complete name : F:\WH\AVCU\GCW.Curtain.Call.Farewell.to.Joey.Janela.2019.WEBRIP.x264-WH.mp4
Format : MPEG-4
Format profile : Base Media
Codec ID : isom
File size : 1.68 GiB
Duration : 3h 49mn
Overall bit rate : 1 050 Kbps
Encoded date : UTC 2019-09-26 20:46:25
Tagged date : UTC 2019-09-26 20:46:25
Writing application : Lavf56.15.102

Video
ID : 1
Format : AVC
Format/Info : Advanced Video Codec
Format profile : [email protected]
Format settings, CABAC : No
Format settings, ReFrames : 2 frames
Codec ID : avc1
Codec ID/Info : Advanced Video Coding
Duration : 3h 49mn
Bit rate mode : Variable
Bit rate : 900 Kbps
Width : 712 pixels
Height : 400 pixels
Display aspect ratio : 16:9
Frame rate mode : Constant
Frame rate : 30.000 fps
Color space : YUV
Chroma subsampling : 4:2:0
Bit depth : 8 bits
Scan type : Progressive
Bits/(Pixel*Frame) : 0.105
Stream size : 1.43 GiB (85%)
Writing library : x264 core 142
Language : English
Encoded date : UTC 2019-09-26 20:46:25
Tagged date : UTC 2019-09-26 20:46:25

Audio
ID : 2
Format : AAC
Format/Info : Advanced Audio Codec
Format profile : LC
Codec ID : 40
Duration : 3h 49mn
Bit rate mode : Variable
Bit rate : 150 Kbps
Maximum bit rate : 192 Kbps
Channel(s) : 2 channels
Channel positions : Front: L R
Sampling rate : 44.1 KHz
Compression mode : Lossy
Stream size : 247 MiB (14%)
Language : English
Encoded date : UTC 2019-09-26 20:46:25
Tagged date : UTC 2019-09-26 20:46:25

4downfiles

https://4downfiles.org/wif57borcjqe

earn4files
https://earn4files.com/wz7cohh84qr6

fileup
https://fileup.cc/nwwcmu8c9185


nitroflare

http://nitroflare.com/view/98C4AD3A14D3E23

rapidgator
https://rapidgator.net/file/55a70dd5fe9fa36a9de37957b9fd47c5

uploadgig
https://uploadgig.com/file/download/3167A9b152d98ea5

Leave a Reply

Your email address will not be published. Required fields are marked *