GCW 2019 11 27 Chopper City in the Ghetto 720p -HEEL

GCW 2019 11 27 Chopper City in the Ghetto 720p WEB h264-HEEL

DescriptionLineup:

Matt Tremont vs 1 Called Manders
Nick Gage vs Atticus Cogar
Jimmy Lloyd vs Ruckus
Hate Trash Disaster vs Young Dumb N Broke
Tony Deppen vs Matt Vandagriff
Dan Maff vs KTB

General
Complete name : GCW.2019.11.27.Chopper.City.in.the.Ghetto.720p.WEB.h264-HEEL.mp4
Format : MPEG-4
Format profile : Base Media
Codec ID : isom
File size : 2.25 GiB
Duration : 2h 42mn
Overall bit rate : 1 981 Kbps
Writing application : Lavf58.32.104

Video
ID : 1
Format : AVC
Format/Info : Advanced Video Codec
Format profile : [email protected]
Format settings, CABAC : Yes
Format settings, ReFrames : 4 frames
Format settings, GOP : M=2, N=32
Codec ID : avc1
Codec ID/Info : Advanced Video Coding
Duration : 2h 42mn
Bit rate mode : Variable
Bit rate : 1 874 Kbps
Width : 1 280 pixels
Height : 720 pixels
Display aspect ratio : 16:9
Frame rate mode : Variable
Frame rate : 29.970 fps
Minimum frame rate : 14.925 fps
Maximum frame rate : 30.303 fps
Color space : YUV
Chroma subsampling : 4:2:0
Bit depth : 8 bits
Scan type : Progressive
Bits/(Pixel*Frame) : 0.068
Stream size : 2.13 GiB (95%)

Audio
ID : 2
Format : AAC
Format/Info : Advanced Audio Codec
Format profile : LC
Codec ID : 40
Duration : 2h 42mn
Bit rate mode : Constant
Bit rate : 96.0 Kbps
Channel(s) : 2 channels
Channel positions : Front: L R
Sampling rate : 48.0 KHz
Compression mode : Lossy
Stream size : 112 MiB (5%)


https://dropapk.to/iqs5d7s5njiv
https://fileup.cc/op8k406pxbh5
https://rapidgator.net/file/5b0f2486af2b4fcfeae2c9930176b022
https://uploadgig.com/file/download/3D7fD2abF98c68a7



dropapk
https://dropapk.to/hbfh6rfgkeht
https://dropapk.to/vtylj3naqwc3
https://dropapk.to/gsk1vrw74874

fileup
https://fileup.cc/c2gbgd24t7hv
https://fileup.cc/92isq5hj8lzx
https://fileup.cc/eo0at4w5nudd

katfile
http://katfile.com/bll466vxyvlr
http://katfile.com/7am2c5vsn507
http://katfile.com/pgm5zr9b20rv

rapidgator
https://rapidgator.net/file/18b5d3678dadbeb093442857f3e90f1a
https://rapidgator.net/file/044ccff879cb39fcffed1723ebf9a889
https://rapidgator.net/file/a2c598eaf2716df2cded4a24259c22a7

uploadgig
https://uploadgig.com/file/download/Ff9d6ea8e021CE33
https://uploadgig.com/file/download/e014170dBf8e170c
https://uploadgig.com/file/download/e2abDe90a40c53aa

Leave a Reply

Your email address will not be published. Required fields are marked *