GCW 2019 10 12 No Sleep 720p

GCW 2019 10 12 No Sleep 720p WEB h264-iNDYHEEL

dOWNLOAD GCW 2019 10 12 No Sleep 720p -iNDYHEEL

GCW 2019 10 12 No Sleep 720p
DescriptionSingles Match
Alex Zayne vs. Zachary Wentz

Singles Match
Jake Atlas vs. Ophidian

Singles Match
Alex Colon vs. Rich Swann

Singles Match
Chris Dickinson vs. Effy

Singles Match
Mance Warner vs. Orange Cassidy

Singles Match
SHLAK vs. Tony Deppen

GCW World Title Match
Nick Gage (c) vs. Matthew Justice

General
Complete name : GCW.2019.10.12.No.Sleep.720p.WEB.h264-iNDYHEEL.mp4
Format : MPEG-4
Format profile : Base Media
Codec ID : isom
File size : 2.56 GiB
Duration : 2h 58mn
Overall bit rate : 2 053 Kbps
Writing application : Lavf58.30.100

Video
ID : 1
Format : AVC
Format/Info : Advanced Video Codec
Format profile : [email protected]
Format settings, CABAC : Yes
Format settings, ReFrames : 4 frames
Format settings, GOP : M=4, N=32
Codec ID : avc1
Codec ID/Info : Advanced Video Coding
Duration : 2h 58mn
Bit rate mode : Variable
Bit rate : 1 945 Kbps
Width : 1 280 pixels
Height : 720 pixels
Display aspect ratio : 16:9
Frame rate mode : Variable
Frame rate : 29.970 fps
Minimum frame rate : 29.412 fps
Maximum frame rate : 30.303 fps
Color space : YUV
Chroma subsampling : 4:2:0
Bit depth : 8 bits
Scan type : Progressive
Bits/(Pixel*Frame) : 0.070
Stream size : 2.43 GiB (95%)

Audio
ID : 2
Format : AAC
Format/Info : Advanced Audio Codec
Format profile : LC
Codec ID : 40
Duration : 2h 58mn
Bit rate mode : Constant
Bit rate : 96.0 Kbps
Channel(s) : 2 channels
Channel positions : Front: L R
Sampling rate : 48.0 KHz
Compression mode : Lossy
Stream size : 124 MiB (5%)

DOWNLOAD

all download @ comments

6 Comments on “GCW 2019 10 12 No Sleep 720p”

  1. watch it last night and some words from a true fan and a jobless loser.

    Nick Gage, he is the reason to not give up. also myself was in prison, You have fans world wide. Stay behind you. give a fuck on ricky. hold the Title 666 days. Love you man.

    Matthew Justice, I had watch him last time with Chris Dickinson, this match was brutal and one of the best matches from both. So I was excided for the next Justice match. He is great !!! GCW need him. The match with Nick was of course great.

    Alex Zayne, must truly say, after the backyard match, he is big star on GCW and I hope we will not lost him for AEW. He did the best backyard match saw for many years. Zayne is king of backyard and Nick is king of deathmatch, the best for GCW.

    Rich Swann, he was on WWE, go home and do not come back, please. Alex Colon deserve a real wrestling match, he is deathmatch legend.

  2. PH.M.H :

    sorry man, I have no e-mail, no facebook, no twitter. I am not a wrestling trader only.
    When you need my help, please ask me in topics.
    Call me when you need something, I will read it in topics. You are cool man 🙂

    Had read some information about Matthew Justice, because I do not know him, but he is so good.
    The match with Nick Gage was not the first one ! In 2018 on AIW there was a match with KTB won against Matthew Justice and Nick Gage and Tom Lawlor ! Matthew Justice was also on IWC, VOW, PWX, CWA, NYWC, PCW, ROH, AIW. Also Matthew Justice had won against Rickey Shane Page in 2013 on PWX. Against Alex Colon in 2019 on PPW. Against G-Raver in 2019 on AIW. There was also matches with John Wayne Murdoch & Reed Bentley.
    Matthew Justice please stay on GCW, it could be his new home.

Leave a Reply

Your email address will not be published. Required fields are marked *