GCW 2019 08 30 Two Cups Stuffed 720p

GCW 2019 08 30 Two Cups Stuffed 720p WEB h264-iNDYHEEL

Download GCW 2019 08 30 Two Cups Stuffed 720p

GCW 2019 08 30 Two Cups Stuffed 720p
Doors, Ladder & Chairs Match: Blake Christian vs. Jimmy Lloyd vs. Alex Zayne vs. G-Raver vs. Matthew Justice vs. Kobe Durst 
Gary Jay vs. “Warhorse” Jake Parnell 
“Filthy” Tom Lawlor & Erick Stevens vs. Violence is Forever (Dominic Garrini & Kevin Ku) 
Homicide vs. Ethan Page 
Los Serpientes (Ophidian, Laredo Kid, Arez) vs Los Beasts (Black Taurus, Gringo Loco, KTB) 
Orange Cassidy vs. Gangrel 
Jerry “The King” Lawler vs. Mance Warner 
GCW World Championship: Nick Gage (c) vs. EFFY

General
Complete name : GCW.2019.08.30.Two.Cups.Stuffed.720p.WEB.h264-iNDYHEEL.mp4
Format : MPEG-4
Format profile : Base Media
Codec ID : isom (isom/iso2/avc1/mp41)
File size : 2.64 GiB
Duration : 3 h 0 min
Overall bit rate : 2 096 kb/s
Writing application : Lavf58.30.100

Video
ID : 1
Format : AVC
Format/Info : Advanced Video Codec
Format profile : [email protected]
Format settings : CABAC / 4 Ref Frames
Format settings, CABAC : Yes
Format settings, Reference : 4 frames
Codec ID : avc1
Codec ID/Info : Advanced Video Coding
Duration : 3 h 0 min
Bit rate : 1 989 kb/s
Width : 1 280 pixels
Height : 720 pixels
Display aspect ratio : 16:9
Frame rate mode : Variable
Frame rate : 29.970 FPS
Minimum frame rate : 14.925 FPS
Maximum frame rate : 30.303 FPS
Color space : YUV
Chroma subsampling : 4:2:0
Bit depth : 8 bits
Scan type : Progressive
Bits/(Pixel*Frame) : 0.072
Stream size : 2.51 GiB (95%)
Codec configuration box : avcC

Audio
ID : 2
Format : AAC LC
Format/Info : Advanced Audio Codec Low Complexity
Codec ID : mp4a-40-2
Duration : 3 h 0 min
Bit rate mode : Constant
Bit rate : 96.0 kb/s
Channel(s) : 2 channels
Channel layout : L R
Sampling rate : 48.0 kHz
Frame rate : 46.875 FPS (1024 SPF)
Compression mode : Lossy
Stream size : 125 MiB (5%)
Default : Yes
Alternate group : 1

download

4downfiles

https://4downfiles.org/p375vh3i908u

fileup
https://fileup.cc/2htztky48g3v

multiup
https://multiup.org/download/ad57f9b36e83e32157179c4541d7f338

nitroflare
http://nitroflare.com/view/32B8BAD10F9A342

rapidgator
https://rapidgator.net/file/38fdee698d574d9f6b3871351c6e8b8a

userscloud
https://userscloud.com/wbmtqcoiyl9v

4downfiles

https://4downfiles.org/6ce5w0k9kl2w
https://4downfiles.org/nve41fxn0ncf
https://4downfiles.org/t7z85p2009ey

earn4files
https://earn4files.com/d1s12h0fj29y
https://earn4files.com/0itib8sr2coc
https://earn4files.com/q4fkgm68y9hc

filespace
http://filespace.com/01zahw5jm8yz
http://filespace.com/mtccqjdr39l1
http://filespace.com/69ykgzt2giwv

nitroflare
http://nitroflare.com/view/208D8E5445E622E
http://nitroflare.com/view/E499A9949538FA3
http://nitroflare.com/view/578C517E6A5A656

rapidgator
https://rapidgator.net/file/7897108611c671bfaa35ad1ec6c77fd8
https://rapidgator.net/file/01b401c7f9b6d888cac4359d9b5b39b6
https://rapidgator.net/file/8de69839b1774213ff27fe31821e02e0

rockfile
http://rockfile.co/rlderbkvvcbq.html
http://rockfile.co/nwot11pihpw9.html

http://rockfile.co/jyyc235url3y.html

uptomega
https://uptomega.com/bh5jdavelc66
https://uptomega.com/2jxni4qytihu
https://uptomega.com/u4y9kv1oogok

3 Comments on “GCW 2019 08 30 Two Cups Stuffed 720p”

  1. There was 50 downloads and no one say thanks ?

    Unbelievable !
    The legend Jerry ‘The King’ Lawler from WWF/WWE is on Indy GCW ! He is 70 years old and his heart was damage. My gosh.
    Many Thanks

    @ PH.M.H : Log in account page do not work anymore ?

Leave a Reply

Your email address will not be published. Required fields are marked *