Future.FC.3.720p.WEB.DL.x264-RM

Future.FC.3.720p.WEB.DL.x264-RM

General
Complete name : Future.FC.3.720p.WEB.DL.x264-RM.mp4
Format : MPEG-4
Format profile : Base Media / Version 2
Codec ID : mp42
File size : 5.41 GiB
Duration : 6h 50mn
Overall bit rate : 1 887 Kbps
Encoded date : UTC 2019-03-23 07:35:03
Tagged date : UTC 2019-03-23 07:35:03
gsst : 0
gstd : 24652138

Video
ID : 1
Format : AVC
Format/Info : Advanced Video Codec
Format profile : [email protected]
Format settings, CABAC : Yes
Format settings, ReFrames : 3 frames
Codec ID : avc1
Codec ID/Info : Advanced Video Coding
Duration : 6h 50mn
Bit rate mode : Variable
Bit rate : 1 755 Kbps
Width : 1 280 pixels
Height : 720 pixels
Display aspect ratio : 16:9
Frame rate mode : Variable
Frame rate : 29.970 fps
Minimum frame rate : 19.987 fps
Maximum frame rate : 29.970 fps
Color space : YUV
Chroma subsampling : 4:2:0
Bit depth : 8 bits
Scan type : Progressive
Bits/(Pixel*Frame) : 0.064
Stream size : 5.04 GiB (93%)

Audio
ID : 2
Format : AAC
Format/Info : Advanced Audio Codec
Format profile : LC
Codec ID : 40
Duration : 6h 50mn
Bit rate mode : Variable
Bit rate : 128 Kbps
Channel(s) : 2 channels
Channel positions : Front: L R
Sampling rate : 44.1 KHz
Compression mode : Lossy
Stream size : 376 MiB (7%)


https://1fichier.com/?9fv8xmay3m6p5wlvs9t1
https://1fichier.com/?mis6vic9wiz484z0lvml
https://1fichier.com/?2vtdvjl5fuo1ql6o4ket
https://1fichier.com/?vl8d5sish4fjwkxx2j18


https://anonfile.com/r3pax9Tam8
https://anonfile.com/15p3xcT8me
https://anonfile.com/A9pcx0T0m0
https://anonfile.com/Zep4x1T5m2


https://ddl.to/7mxfjrp68ooz
https://ddl.to/z9hia14x0ox4
https://ddl.to/nvwhdngjtigv
https://ddl.to/8wttjkbnegxp


http://dl.free.fr/jBo4NY6Nw
http://dl.free.fr/ftrBl4MlY
http://dl.free.fr/kT2xBuNmf
http://dl.free.fr/j6TUPFUsS


https://filerio.in/palgc6bd1xu6
https://filerio.in/pummnh4imom3
https://filerio.in/ilxm6engovrc
https://filerio.in/peggzypz5qvg


http://filestore.to/?d=81LFEEKJFL
http://filestore.to/?d=UJF2EWCKLU
http://filestore.to/?d=E3JKNHG0AZ
http://filestore.to/?d=YJXWX4FWGS

ONE LINK DOWNLOAD

https://1fichier.com/?irc7icc1ruldi97qp1r8
https://anonfile.com/47p6x7T1mf
http://dl.free.fr/jiVu66Phy
https://filerio.in/mcynadbifoz4


Leave a Reply

Your email address will not be published.