Fight Nights Global 94 540p / 720p [ThS / WH]

Fight Nights Global 94 540p / 720p

dOWNLOAD Fight Nights Global 94 540p / 720p

Language:Russian  

Fight.Nights.Global.94.720p.WEB.DL.x264-ThS

FULL CARD
General
Format                         : MPEG-4
Format profile                 : Base Media
Codec ID                       : isom (isom/iso2/avc1/mp41)
File size                      : 5.91 GiB
Duration                       : 6 h 30 min
Overall bit rate               : 2 166 kb/s

Video
Format                         : AVC
Format/Info                    : Advanced Video Codec
Format profile                 : [email protected]
Format settings, CABAC         : Yes
Format settings, ReFrames      : 4 frames
Codec ID                       : avc1
Duration                       : 6 h 30 min
Bit rate                       : 1 980 kb/s
Width                          : 1 280 pixels
Height                         : 720 pixels
Display aspect ratio           : 16:9
Frame rate mode                : Constant
Frame rate                     : 25.000 FPS

Audio
Format                         : AAC
Format/Info                    : Advanced Audio Codec
Format profile                 : LC
Codec ID                       : 40
Duration                       : 6 h 30 min
Bit rate mode                  : Constant
Bit rate                       : 192 kb/s
Channel(s)                     : 2 channels
Channel positions              : Front: L R
Sampling rate                  : 44.1 kHz

fileup
https://fileup.cc/5slht2c4wri8

rapidgator
https://rapidgator.net/file/719b01dfe7e84ddc81ae9145419be97f

fileup

https://fileup.cc/kwo76knz3vmr
https://fileup.cc/78ru2max1g58
https://fileup.cc/w8vr4acihzlk
https://fileup.cc/3qdiavnbydpr
https://fileup.cc/dqw1xfxiv4mo
https://fileup.cc/fdloj54rmldj

userscloud

https://userscloud.com/2tmfldhr3i7g
https://userscloud.com/hmx1jcxeup9u
https://userscloud.com/qskvmhp7on0t
https://userscloud.com/ssyqp6o068qg
https://userscloud.com/8rik1odq9ucp
https://userscloud.com/qflithyw08ht

rapidgator
https://rapidgator.net/file/6cac9e7b78490f2e12b7f768ba09fa9a
https://rapidgator.net/file/e616ea259f962d76e16a17f08506cea2
https://rapidgator.net/file/3e44893190bae48a4ed07e750e75633f
https://rapidgator.net/file/2f4f3eb8bd21c4a19fbc8a32ca50e2e6
https://rapidgator.net/file/5b3d4d82c2cdef89e821185d9a6c0f17
https://rapidgator.net/file/6bf0d4aaf93ef3e3c3f0858711a7c952

Fight Nights Global 94 540p WEBRIP x264-WH

General
Complete name                    :
Fight.Nights.Global.94.540p.WEBRIP.x264-WH.mp4
Format                           : MPEG-4
Format profile                   : Base Media
Codec ID                         : isom
File size                        : 3.63 GiB
Duration                         : 6h 31mn
Overall bit rate                 : 1 330 Kbps
Encoded date                     : UTC 2019-09-26 20:46:25
Tagged date                      : UTC 2019-09-26 20:46:25
Writing application              : Lavf56.15.102

Video
ID                               : 1
Format                           : AVC
Format/Info                      : Advanced Video Codec
Format profile                   : [email protected]
Format settings, CABAC           : No
Format settings, ReFrames        : 2 frames
Codec ID                         : avc1
Codec ID/Info                    : Advanced Video Coding
Duration                         : 6h 31mn
Bit rate mode                    : Variable
Bit rate                         : 1 200 Kbps
Width                            : 960 pixels
Height                           : 540 pixels
Display aspect ratio             : 16:9
Frame rate mode                  : Constant
Frame rate                       : 25.000 fps
Color space                      : YUV
Chroma subsampling               : 4:2:0
Bit depth                        : 8 bits
Scan type                        : Progressive
Bits/(Pixel*Frame)               : 0.093
Stream size                      : 3.27 GiB (90%)
Writing library                  : x264 core 142
Language                         : English
Encoded date                     : UTC 2019-09-26 20:46:25
Tagged date                      : UTC 2019-09-26 20:46:25

Audio
ID                               : 2
Format                           : AAC
Format/Info                      : Advanced Audio Codec
Format profile                   : LC
Codec ID                         : 40
Duration                         : 6h 31mn
Bit rate mode                    : Constant
Bit rate                         : 128 Kbps
Channel(s)                       : 2 channels
Channel positions                : Front: L R
Sampling rate                    : 44.1 KHz
Compression mode                 : Lossy
Stream size                      : 357 MiB (10%)
Language                         : English
Encoded date                     : UTC 2019-09-26 20:46:25
Tagged date                      : UTC 2019-09-26 20:46:25

fileup
https://fileup.cc/mdzogq8a0qnp

rapidgator
https://rapidgator.net/file/452b4fab099f3021663d960452f13cd0

fileup
https://fileup.cc/vqhr8x3fcz3w
https://fileup.cc/k2qeg2sch5ed
https://fileup.cc/pqtkdpitedb4
https://fileup.cc/uee40h1u9ozd

upload
https://upload.ac/zkrhohv59yss
https://upload.ac/r1i9qlc08939
https://upload.ac/wvu96m1j1n9n
https://upload.ac/8tex5kjexjz1

userscloud
https://userscloud.com/9cdtd5v3cnyw
https://userscloud.com/ofqq7re4m61c
https://userscloud.com/82jj37nhczbd
https://userscloud.com/pyba2bxnm2gh

Leave a Reply

Your email address will not be published. Required fields are marked *