Fight.Night.2019-03-23.Full.broadcast.HDTV.HEVC.x265-WH

Fight.Night.2019-03-23.Full.broadcast.HDTV.HEVC.x265-WH
DescriptionFight.Night.2019-03-23.Full.broadcast.HDTV.HEVC.x265-WH

Runtime: 03:57:36 – commercials removed (ridiculous amount; apologies if I have missed any)

Feat:
CJ Challenger vs Kyle Haywood 10 rounds, vacant BBBofC Midlands Area Super Welterweight Title
Sam Maxwell vs Sabri Sediri 10 rounds, vacant WBO European Super Lightweight Title
Nathan Gorman vs Kevin Johnson 10 rounds, heavyweight
Sam Bowen vs Jordan McCorry 12 rounds, BBBofC British Super Featherweight Title
Willie Hutchinson vs Daniel Borisov 4 rounds, light heavyweight

General
Complete name                    : Fight.Night.2019-03-23.Full.broadcast.HDTV.HEVC.x265-WH.mp4
Format                          : MPEG-4
Format profile                  : QuickTime
Codec ID                        : qt 
File size                        : 2.06 GiB
Duration                        : 3h 57mn
Overall bit rate                : 1 240 Kbps
Writing application              : Lavf55.33.100

Video
ID                              : 1
Format                          : hev1
Codec ID                        : hev1
Duration                        : 3h 57mn
Bit rate mode                    : Variable
Bit rate                        : 1 107 Kbps
Width                            : 712 pixels
Height                          : 400 pixels
Display aspect ratio            : 16:9
Frame rate mode                  : Constant
Frame rate                      : 25.000 fps
Bits/(Pixel*Frame)              : 0.155
Stream size                      : 1.84 GiB (89%)
Language                        : English

Audio
ID                              : 2
Format                          : AAC
Format/Info                      : Advanced Audio Codec
Format profile                  : LC
Codec ID                        : 40
Duration                        : 3h 57mn
Bit rate mode                    : Constant
Bit rate                        : 128 Kbps
Channel(s)                      : 2 channels
Channel positions                : Front: L R
Sampling rate                    : 44.1 KHz
Compression mode                : Lossy
Stream size                      : 218 MiB (10%)
Language                        : English

anonfile.com

https://shrt10.com/oSSw

dl.free.fr

https://shrt10.com/DLhoMg

filefactory.com

https://shrt10.com/ZC2URX

filescdn.net

https://shrt10.com/rOLEwSWn

rapidgator.net

https://shrt10.com/aOUTwgke

uploadgig.com

https://shrt10.com/Ovwl7Ql

uptobox.com

https://shrt10.com/cmpdsaYo

Leave a Reply

Your email address will not be published. Required fields are marked *