EVE We’re All Gonna Die The Kris Wolf Retirement Show 720p WEB h264

EVE We’re All Gonna Die The Kris Wolf Retirement Show 720p WEB h264

EVE We’re All Gonna Die The Kris Wolf Retirement Show 720p WEB h264

Size2.74 GB

dOWNLOAD @ COMMENTS

NOTE : 1080p OF THIS IS 10 GB AND IAM NOT PLANNING TO UP IT BUT TILL 10 DAYS IF ANY ONE ASK FOR THIS QUALITY I WILL UP IT AFTER THIS I WILL DELETE THE FILE FROM MY PC

3 Comments on “EVE We’re All Gonna Die The Kris Wolf Retirement Show 720p WEB h264”

  1. Name der Veranstaltung:
    EVE We’re All Gonna Die! The Frantic Scramble In Search For Meaning Through A Mess Of Meaty Interactions: AKA The Kris Wolf Retirement Show
    Datum:
    26.04.2019
    Liga:
    Pro-Wrestling: EVE
    Art:
    TV-Show
    Ort:
    Bethnal Green, Greater London, England, UK
    Halle:
    Resistance Gallery
    Ausstrahlungsart:
    Live
    Ausstrahlungsdatum:
    26.04.2019
    Kommentatoren:
    Alex Windsor, Charlie Morgan, Dann Read, Jimmy Havoc & Kris Wolf
    Four Way Match
    Killer Jizz (Killer Kelly), Mancream Di Matteo (Laura Di Matteo) & Spunk Angel (Erin Angel) vs. Ovary Moth (Martina)
    Singles Match
    Jetta vs. Jinny Havoc (Jinny)
    Singles Match
    The Mountain (Viper) vs. Tonkatsu (Jamie Hayter)
    Singles Match
    Charli Evans vs. Tito
    EVE Title Match
    Kay Lee Ray (c) vs. Nina Samuels
    Gauntlet Match #1
    Kris Wolf vs. Laura Di Matteo
    Gauntlet Match #2
    Erin Angel vs. Kris Wolf
    Gauntlet Match #3
    Kris Wolf vs. Rhia O’Reilly
    Gauntlet Match #4
    Jetta Morgan (Jetta) vs. Kris Wolf
    Gauntlet Match #5
    Kris Wolf vs. Rebel Kinney
    Gauntlet Match #6
    Killer Kelly vs. Kris Wolf
    Gauntlet Match #7
    Kris Wolf vs. Viper
    Gauntlet Match #8
    Kay Lee Ray vs. Kris Wolf
    Gauntlet Match #9
    Kris Wolf vs. Martina
    Gauntlet Match #10
    Kris Wolf vs. Nina Samuels
    Gauntlet Match #11
    Jinny vs. Kris Wolf
    Gauntlet Match #12
    Jamie Hayter vs. Kris Wolf
    Gauntlet Match #13
    Charli Evans (w/Jamie Hayter & Jinny) vs. Kris Wolf (w/Act Yasukawa & Tito)

    General
    Complete name : Were All Gonna Die – The Kris Wolf Retirement Show\Were All Gonna Die – The Kris Wolf Retirement Show(720p_aac).mp4
    Format : MPEG-4
    Format profile : Base Media
    Codec ID : isom (isom/iso2/avc1/mp41)
    File size : 2.74 GiB
    Duration : 3 h 0 min
    Overall bit rate : 2 173 kb/s
    Writing application : Lavf58.18.104

    Video
    ID : 1
    Format : AVC
    Format/Info : Advanced Video Codec
    Format profile : [email protected]
    Format settings : CABAC / 3 Ref Frames
    Format settings, CABAC : Yes
    Format settings, ReFrames : 3 frames
    Codec ID : avc1
    Codec ID/Info : Advanced Video Coding
    Duration : 3 h 0 min
    Bit rate : 2 039 kb/s
    Width : 1 280 pixels
    Height : 720 pixels
    Display aspect ratio : 16:9
    Frame rate mode : Variable
    Frame rate : 25.000 FPS
    Minimum frame rate : 24.972 FPS
    Maximum frame rate : 90 000.000 FPS
    Color space : YUV
    Chroma subsampling : 4:2:0
    Bit depth : 8 bits
    Scan type : Progressive
    Bits/(Pixel*Frame) : 0.088
    Stream size : 2.57 GiB (94%)
    Codec configuration box : avcC

    Audio
    ID : 2
    Format : AAC LC
    Format/Info : Advanced Audio Codec Low Complexity
    Codec ID : mp4a-40-2
    Duration : 3 h 0 min
    Bit rate mode : Constant
    Bit rate : 128 kb/s
    Channel(s) : 2 channels
    Channel layout : L R
    Sampling rate : 48.0 kHz
    Frame rate : 46.875 FPS (1024 SPF)
    Compression mode : Lossy
    Stream size : 165 MiB (6%)
    Default : Yes
    Alternate group : 1

  2. Thank you for this, love the Pro Wrestling EVE shows, and its gonna be sad not seeing Kris Wolf wrestling anymore but I understand why she has to retire.

Leave a Reply

Your email address will not be published.