ECCW 2019 09 13 War Games 1080p WEB h264-iNDYHEEL

ECCW 2019 09 13 War Games 1080p WEB h264-iNDYHEEL

ECCW 2019 09 13
DescriptionECCW presents WAR GAMES from The Anvil Centre in
New Westminster, BC on September 13th, 2019.

1) The Voros Twins w/ Kristopher Kassidy vs. Re:Loaded

2) Nolan James vs. Beef Boy

3) Tony Baroni vs. Fergie

4) Randy Myers vs. Nicole Matthews (c) w/
Kristopher Kassidy | ECCW Women’s Championship

5) Travis Williams w/ The Wisemen vs. Artemis Spencer
(c) | ECCW Canadian Championship

6) The Moonshine Mafia (Judas Icarus, Brett Mattews, Eddie Osbourne)
vs. Team Scotty Mac (Andy Bird, Erik Strange, Bishop) | WAR GAMES

General
Complete name : ECCW.2019.09.13.War.Games.1080p.WEB.h264-iNDYHEEL.mp4
Format : MPEG-4
Format profile : Base Media
Codec ID : isom (isom/iso2/avc1/mp41)
File size : 4.00 GiB
Duration : 2 h 19 min
Overall bit rate : 4 100 kb/s
Writing application : Lavf58.32.104

Video
ID : 1
Format : AVC
Format/Info : Advanced Video Codec
Format profile : [email protected]
Format settings : CABAC / 3 Ref Frames
Format settings, CABAC : Yes
Format settings, Reference : 3 frames
Codec ID : avc1
Codec ID/Info : Advanced Video Coding
Duration : 2 h 19 min
Bit rate : 3 897 kb/s
Width : 1 920 pixels
Height : 1 080 pixels
Display aspect ratio : 16:9
Frame rate mode : Variable
Frame rate : 30.000 FPS
Minimum frame rate : 30.000 FPS
Maximum frame rate : 90 000.000 FPS
Color space : YUV
Chroma subsampling : 4:2:0
Bit depth : 8 bits
Scan type : Progressive
Bits/(Pixel*Frame) : 0.063
Stream size : 3.81 GiB (95%)
Codec configuration box : avcC

Audio
ID : 2
Format : AAC LC
Format/Info : Advanced Audio Codec Low Complexity
Codec ID : mp4a-40-2
Duration : 2 h 19 min
Bit rate mode : Constant
Bit rate : 192 kb/s
Channel(s) : 2 channels
Channel layout : L R
Sampling rate : 48.0 kHz
Frame rate : 46.875 FPS (1024 SPF)
Compression mode : Lossy
Stream size : 192 MiB (5%)
Default : Yes
Alternate group : 1

download-new

https://earn4files.com/x3b4b1wknp6s
https://fileup.cc/d35oeepbba6q
https://rapidgator.net/file/a6f3c6ec13c3f4fcaf1c329a2c2775d2
https://uploadgig.com/file/download/6159Cfea79f9ec91

download-new

earn4files
https://earn4files.com/vt8uop0ibeti
https://earn4files.com/7mbab2egqj68
https://earn4files.com/0v52sgmp7k1c
https://earn4files.com/d3m0mefj0hry
https://earn4files.com/epnghlkkvc3i

nitroflare
http://nitroflare.com/view/8F0F93602804CD8
http://nitroflare.com/view/4AE7678EA65D4ED
http://nitroflare.com/view/B041DBE261F735F
http://nitroflare.com/view/E07CF26CE5F531A
http://nitroflare.com/view/773813C0A297D60

rockfile
http://rockfile.co/1csnuv5cfgsi.html
http://rockfile.co/n6puj5ykl4zq.html
http://rockfile.co/2wj4lsswwdlk.html
http://rockfile.co/mf1q4dug4sc2.html
http://rockfile.co/yt9rjvtkahyw.html

Thank

Leave a Reply

Your email address will not be published. Required fields are marked *