Dark Side Of The Ring S02E09 400p / 720p -NWCHD

Dark Side Of The Ring S02E09 The Last Ride Of The Road Warriors HDTV x264-NWCHD / 720p

Dark Side Of The Ring S02E09 400p / 720p -NWCHD

Name – Dark.Side.Of.The.Ring.S02E09.The.Last.Ride.Of.The.Road.Warriors.720p.HDTV.x264-NWCHD
Released – 05.12.2020
Aired – 05.12.2020
Size – 1.41 GB
Source – VICE HD
Container – MP4
Resolution – 1280 x 720 (16:9) @ 29.970 FPS
Video – x264 @ 4500 KBPS
Audio – AAC 192 KBPS
Length – 00:43:51 MIN
Name – Dark.Side.Of.The.Ring.S02E09.The.Last.Ride.Of.The.Road.Warriors.HDTV.x264-NWCHD
Released – 05.12.2020
Aired – 05.05.2020
Size – 494 MB
Source – VICE HD
Container – MP4
Resolution – 704 x 400 (16:9) @ 29.970 FPS
Video – x264 @ 1400 KBPS
Audio – AAC 192 KBPS
Length – 00:43:51 MIN

General
Format : MPEG-4
Format profile : Base Media
Codec ID : isom (isom/iso2/avc1/mp41)
File size : 495 MiB
Duration : 43 min 51 s

Video
ID : 1
Format : AVC
Codec ID : avc1
Duration : 43 min 51 s
Bit rate : 1 400 kb/s
Width : 704 pixels
Height : 400 pixels
Display aspect ratio : 16:9
Frame rate mode : Variable
Frame rate : 29.970 (30000/1001) FPS
Minimum frame rate : 27.701 FPS
Maximum frame rate : 29.970 FPS
Color space : YUV
Chroma subsampling : 4:2:0
Bit depth : 8 bits
Scan type : Progressive
Bits/(Pixel*Frame) : 0.166
Stream size : 432 MiB (87%)

Audio
ID : 2
Format : AAC LC
Codec ID : mp4a-40-2
Duration : 43 min 51 s
Bit rate mode : Constant
Bit rate : 192 kb/s
Channel(s) : 2 channels
Channel layout : L R
Sampling rate : 48.0 kHz
Frame rate : 46.875 FPS (1024 SPF)

General
Format : MPEG-4
Format profile : Base Media
Codec ID : isom (isom/iso2/avc1/mp41)
File size : 1.42 GiB
Duration : 43 min 51 s

Video
ID : 1
Format : AVC
Codec ID : avc1
Codec ID/Info : Advanced Video Coding
Duration : 43 min 51 s
Bit rate : 4 500 kb/s
Width : 1 280 pixels
Height : 720 pixels
Display aspect ratio : 16:9
Frame rate mode : Variable
Frame rate : 29.970 (30000/1001) FPS
Minimum frame rate : 27.701 FPS
Maximum frame rate : 29.970 FPS
Color space : YUV
Chroma subsampling : 4:2:0
Bit depth : 8 bits
Scan type : Progressive
Bits/(Pixel*Frame) : 0.163
Stream size : 1.36 GiB (96%)

Audio
ID : 2
Format : AAC LC
Codec ID : mp4a-40-2
Duration : 43 min 51 s
Bit rate mode : Constant
Bit rate : 192 kb/s
Channel(s) : 2 channels
Channel layout : L R
Sampling rate : 48.0 kHz
Frame rate : 46.875 FPS (1024 SPF)
Compression mode : Lossy
Stream size : 60.3 MiB (4%)

wv

 109 total views,  2 views today

About PH.M.H

[Wrestling Best Uploader]

View all posts by PH.M.H

2 Comments on “Dark Side Of The Ring S02E09 400p / 720p -NWCHD”

Leave a Reply

Your email address will not be published. Required fields are marked *