Dragon Gate King Of Gate 2019 Day 7 720p / 24th MAY 2019

Dragon Gate 2019 05 24 King Of Gate 2019 Day 7 720p WEB h264-H33B

Dragon Gate 2019 05 24 King Of Gate 2019 Day 7 720p WEB h264-H33B

TITLE:  Dragon.Gate.2019.05.24.King.Of.Gate.2019.Day.7.720p.WEB.h264-H33B


CARD:   
Tag Team Match
R.E.D. (Eita & Takashi Yoshida) vs. Ryo Saito & Shun Skywalker

King Of Gate 2019 Block B Match
Masato Yoshino vs. Yasushi Kanda

Tag Team Match
Masaaki Mochizuki & YAMATO vs. Natural Vibes (Punch Tominaga & Susumu Yokosuka)

King Of Gate 2019 Block A Match
Kzy vs. U-T

Six Man Tag Team Match
MaxiMuM (Dragon Kid, Jason Lee & Naruki Doi) vs. Strong Machine F, Strong Machine G & Strong Machine J

Singles Match
BxB Hulk vs. Super Shisa

King Of Gate 2019 Block C Match
Ben-K vs. Kaito Ishida

King Of Gate 2019 Block D Match
Big R Shimizu vs. KAI


DATE:  2019.05.24
LOCATION:  Sapporo, Hokkaido, Japan
ARENA:  Susukino Mars Gym
RUNTIME:  2h 42m 21s
VIDEO:  h264 | 2001 kbps | 1280×720 px | 30 fps
AUDIO:  AAC | 128 kbps
LANGUAGE:  Japanese (no commentary)
CONTAINER:  MP4

General
Complete name : Dragon.Gate.2019.05.24.King.Of.Gate.2019.Day.7.720p.WEB.h264-H33B.mp4
Format : MPEG-4
Format profile : Base Media
Codec ID : isom (isom/iso2/avc1/mp41)
File size : 2.42 GiB
Duration : 2 h 42 min
Overall bit rate : 2 136 kb/s
Writing application : Lavf56.30.100

Video
ID : 1
Format : AVC
Format/Info : Advanced Video Codec
Format profile : [email protected]
Format settings : CABAC / 3 Ref Frames
Format settings, CABAC : Yes
Format settings, Reference : 3 frames
Format settings, GOP : M=1, N=30
Codec ID : avc1
Codec ID/Info : Advanced Video Coding
Duration : 2 h 42 min
Bit rate : 2 001 kb/s
Width : 1 280 pixels
Height : 720 pixels
Display aspect ratio : 16:9
Frame rate mode : Constant
Frame rate : 30.000 FPS
Color space : YUV
Chroma subsampling : 4:2:0
Bit depth : 8 bits
Scan type : Progressive
Bits/(Pixel*Frame) : 0.072
Stream size : 2.27 GiB (94%)
Writing library : Zencoder Video Encoding System
Codec configuration box : avcC

Audio
ID : 2
Format : AAC LC
Format/Info : Advanced Audio Codec Low Complexity
Codec ID : mp4a-40-2
Duration : 2 h 42 min
Bit rate mode : Constant
Bit rate : 128 kb/s
Channel(s) : 2 channels
Channel layout : L R
Sampling rate : 48.0 kHz
Frame rate : 46.875 FPS (1024 SPF)
Compression mode : Lossy
Stream size : 149 MiB (6%)
Default : Yes
Alternate group : 1

https://1fichier.com/?84bq47nv03h04yemrsoo
https://anonfile.com/d1ncD6u5n8
https://bayfiles.com/U1neD2u1n1
https://bitster.cz/file/ceb1cf
http://dl.free.fr/jVjGw6hl6
https://file.bz/70mdD5ubn4
https://filerio.in/6y7bfx5j57wc
https://multiup.org/download/29e31f9b40cb727b181c54becf2dad73
http://nitroflare.com/view/F89B453A8BB1E17
https://openload.co/f/_rmwy96A1vQ
https://rg.to/file/67655cadcd0dafedea7e8286da8197e4
https://turbobit.net/l0sxoh55wqcx.html

Leave a Reply

Your email address will not be published. Required fields are marked *