Dragon Gate King Of Gate 2019 Day 1 720p / 9th MAY 2019

Dragon Gate 2019 05 09 King Of Gate 2019 Day 1 720p WEB h264-H33B

Dragon Gate 2019 05 09 King Of Gate 2019 Day 1 720p WEB h264-H33B

TITLE:  Dragon.Gate.2019.05.09.King.Of.Gate.2019.Day.1.720p.WEB.h264-H33B


CARD:   
Ten Man Tag Team Match
Dragon Dia, Keisuke Okuda & Mochizuki Dojo (Hyo Watanabe, Kota Minoura & Yuki Yoshioka) vs. K-ness, Mondai Ryu & Natural Vibes (Punch Tominaga, Susumu Yokosuka & YASSHI)

Tag Team Match
Genki Horiguchi & Ryo Saito vs. Jackson Florida & Johnson Florida (w/Daniel Mishima)

Six Man Tag Team Match
MaxiMuM (Dragon Kid, Jason Lee & Kaito Ishida) vs. Strong Machine F, Strong Machine G & Strong Machine J

King Of Gate 2019 Block B Match
Eita vs. Masato Yoshino

King Of Gate 2019 Block D Match
Masaaki Mochizuki vs. Shun Skywalker

Ten Man Tag Team Match
Hiroshi Yamato & Tribe Vanguard (Kagetora, KAI, U-T & Yosuke Santa Maria) vs. R.E.D. (KAZMA SAKAMOTO, PAC, Takashi Yoshida & Yasushi Kanda)

King Of Gate 2019 Block A Match
Kzy vs. Naruki Doi

King Of Gate 2019 Block C Match
Ben-K vs. YAMATO


DATE:  2019.05.09
LOCATION:  Tokyo, Japan
ARENA:  Korakuen Hall
RUNTIME:  2h 49m 36s
VIDEO:  h264 | 2001 kbps | 1280×720 px | 30 fps
AUDIO:  AAC | 128 kbps
LANGUAGE:  Japanese
CONTAINER:  MP4

General
Complete name : Dragon.Gate.2019.05.09.King.Of.Gate.2019.Day.1.720p.WEB.h264-H33B.mp4
Format : MPEG-4
Format profile : Base Media
Codec ID : isom (isom/iso2/avc1/mp41)
File size : 2.53 GiB
Duration : 2 h 49 min
Overall bit rate : 2 136 kb/s
Writing application : Lavf56.30.100

Video
ID : 1
Format : AVC
Format/Info : Advanced Video Codec
Format profile : [email protected]
Format settings : CABAC / 3 Ref Frames
Format settings, CABAC : Yes
Format settings, Reference : 3 frames
Format settings, GOP : M=1, N=30
Codec ID : avc1
Codec ID/Info : Advanced Video Coding
Duration : 2 h 49 min
Bit rate : 2 001 kb/s
Width : 1 280 pixels
Height : 720 pixels
Display aspect ratio : 16:9
Frame rate mode : Constant
Frame rate : 30.000 FPS
Color space : YUV
Chroma subsampling : 4:2:0
Bit depth : 8 bits
Scan type : Progressive
Bits/(Pixel*Frame) : 0.072
Stream size : 2.37 GiB (94%)
Writing library : Zencoder Video Encoding System
Codec configuration box : avcC

Audio
ID : 2
Format : AAC LC
Format/Info : Advanced Audio Codec Low Complexity
Codec ID : mp4a-40-2
Duration : 2 h 49 min
Bit rate mode : Constant
Bit rate : 128 kb/s
Channel(s) : 2 channels
Channel layout : L R
Sampling rate : 48.0 kHz
Frame rate : 46.875 FPS (1024 SPF)
Compression mode : Lossy
Stream size : 155 MiB (6%)
Default : Yes
Alternate group : 1

https://1fichier.com/?06oxxgq8dagoh8h6lvvq
https://anonfile.com/NbAdC7uena
https://bayfiles.com/W6CeC4u9n1
https://bitster.cz/file/3213e3
http://dl.free.fr/mYNrKJ4IA
https://file.bz/h8B6C0u8n0
https://filerio.in/rk5en0au47vh
https://multiup.org/download/86a7c2d18e631956df0d3388b6814942
https://openload.co/f/DtE6ldrheRE
https://rg.to/file/cf913691b85ce39d751f49bab63ff763
https://turbobit.net/poypriuez8y5.html

Leave a Reply

Your email address will not be published.