CMLL.2019.03.19.Martes.De.Nuevos.Valores.WEB.HEVC.x265-WH

CMLL.2019.03.19.Martes.De.Nuevos.Valores.WEB.HEVC.x265-WH

General
Complete name                    : CMLL.2019.03.19.Martes.De.Nuevos.Valores.WEB.HEVC.x265-WH.mp4
Format                          : MPEG-4
Format profile                  : QuickTime
Codec ID                        : qt 
File size                        : 1.13 GiB
Duration                        : 2h 19mn
Overall bit rate                : 1 161 Kbps
Writing application              : Lavf55.33.100

Video
ID                              : 1
Format                          : hev1
Codec ID                        : hev1
Duration                        : 2h 19mn
Bit rate mode                    : Variable
Bit rate                        : 1 028 Kbps
Width                            : 712 pixels
Height                          : 400 pixels
Display aspect ratio            : 16:9
Frame rate mode                  : Constant
Frame rate                      : 25.000 fps
Bits/(Pixel*Frame)              : 0.144
Stream size                      : 1.00 GiB (89%)
Language                        : English

Audio
ID                              : 2
Format                          : AAC
Format/Info                      : Advanced Audio Codec
Format profile                  : LC
Codec ID                        : 40
Duration                        : 2h 19mn
Bit rate mode                    : Constant
Bit rate                        : 128 Kbps
Channel(s)                      : 2 channels
Channel positions                : Front: L R
Sampling rate                    : 44.1 KHz
Compression mode                : Lossy
Stream size                      : 128 MiB (11%)
Language                        : English

https://1fichier.com/?drep6ggicp7739gqezmp
https://anonfile.com/Lew8U2S7m6
https://ddl.to/z27jeefcrbjs
http://dl.free.fr/wqYVYqFZA
https://filerio.in/m52e7mu2a3xy
http://filestore.to/?d=MQDFQD1MML

About PH.M.H

[Wrestling Best Uploader]

View all posts by PH.M.H

Leave a Reply

Your email address will not be published. Required fields are marked *