CMLL.2019.03.18.Homenaje.A.2.Leyendas.Puebla.WEB.HEVC.x265-WH

CMLL.2019.03.18.Homenaje.A.2.Leyendas.Puebla.WEB.HEVC.x265-WH

DescriptionCMLL.2019.03.18.Homenaje.A.2.Leyendas.Puebla.WEB.HEVC.x265-WH

General
Complete name                    : CMLL.2019.03.18.Homenaje.A.2.Leyendas.Puebla.WEB.HEVC.x265-WH.mp4
Format                          : MPEG-4
Format profile                  : QuickTime
Codec ID                        : qt 
File size                        : 1.02 GiB
Duration                        : 2h 4mn
Overall bit rate                : 1 179 Kbps
Writing application              : Lavf55.33.100

Video
ID                              : 1
Format                          : hev1
Codec ID                        : hev1
Duration                        : 2h 4mn
Bit rate mode                    : Variable
Bit rate                        : 1 046 Kbps
Width                            : 712 pixels
Height                          : 400 pixels
Display aspect ratio            : 16:9
Frame rate mode                  : Constant
Frame rate                      : 25.000 fps
Bits/(Pixel*Frame)              : 0.147
Stream size                      : 930 MiB (89%)
Language                        : English

Audio
ID                              : 2
Format                          : AAC
Format/Info                      : Advanced Audio Codec
Format profile                  : LC
Codec ID                        : 40
Duration                        : 2h 4mn
Bit rate mode                    : Constant
Bit rate                        : 128 Kbps
Channel(s)                      : 2 channels
Channel positions                : Front: L R
Sampling rate                    : 44.1 KHz
Compression mode                : Lossy
Stream size                      : 114 MiB (11%)
Language                        : English

https://1fichier.com/?e7untiruwgogtdjtod7k
https://anonfile.com/B5mfS2S2mc
https://ddl.to/dfh1fzkeaobm
http://dl.free.fr/iSqg6Lb1a
https://filerio.in/g70bi45dpi1x
http://filestore.to/?d=95XLJBO5XE

Leave a Reply

Your email address will not be published. Required fields are marked *