CHIKARA 2019 10 06 King of Trios 2019 Night 3 720p

CHIKARA 2019 10 06 King of Trios 2019 Night 3 720p WEB h264-NCMP

CHIKARA 2019 10 06 King of Trios 2019 Night 3 720p
Description
King of Trios 2019 – Night Three
CHIKARA
Sunday, October 6th, 2019

Streamed Live from Reading, PA – Featuring:

This is the one we’ve been waiting for – the final night of King of Trios 2019!
Only the final four are left standing, and by night’s end, we’ll crown the victors!
Plus: the annual Tag Team Gauntlet match sees 10 duos compete in
a winner-stays-on match that tests endurance and continuity!
The Rey de Voladores mini-tournament comes to a climax as
the final two flyers duke it out. And, a few special non-tournament
bouts punctuate the proceedings as well!

    Both King of Trios Semi-Final Matches
    Oleg the Usurper vs Mat Diamond
    The 2019 Tag Team Gauntlet
    Jordynne Grace vs Lady Frost
    The Rey de Voladores Tournament Final
    The King of Trios 2019 Tournament Final

General
Complete name : CHIKARA.2019.10.06.King.of.Trios.2019.Night.3.720p.WEB.h264-NCMP.mp4
Format : MPEG-4
Format profile : Base Media
Codec ID : isom (isom/iso2/avc1/mp41)
File size : 1.87 GiB
Duration : 2 h 41 min
Overall bit rate : 1 660 kb/s
Writing application : Lavf57.72.101

Video
ID : 1
Format : AVC
Format/Info : Advanced Video Codec
Format profile : [email protected]
Format settings : CABAC / 4 Ref Frames
Format settings, CABAC : Yes
Format settings, Reference : 4 frames
Codec ID : avc1
Codec ID/Info : Advanced Video Coding
Duration : 2 h 41 min
Bit rate : 1 536 kb/s
Width : 1 280 pixels
Height : 720 pixels
Display aspect ratio : 16:9
Frame rate mode : Variable
Frame rate : 29.970 (29970/1000) FPS
Minimum frame rate : 11.549 FPS
Maximum frame rate : 29.970 FPS
Color space : YUV
Chroma subsampling : 4:2:0
Bit depth : 8 bits
Scan type : Progressive
Bits/(Pixel*Frame) : 0.056
Stream size : 1.72 GiB (92%)
Writing library : x264 core 152 r2854 e9a5903
Codec configuration box : avcC

Audio
ID : 2
Format : AAC LC
Format/Info : Advanced Audio Codec Low Complexity
Codec ID : mp4a-40-2
Duration : 2 h 41 min
Bit rate mode : Constant
Bit rate : 129 kb/s
Channel(s) : 2 channels
Channel layout : L R
Sampling rate : 48.0 kHz
Frame rate : 46.875 FPS (1024 SPF)
Compression mode : Lossy
Stream size : 149 MiB (8%)
Default : Yes
Alternate group : 1

https://fileup.cc/dy6u1uhijn56
http://nitroflare.com/view/37E5C5FB5677CCB
https://rapidgator.net/file/e8bca23c0ec60701931891293409b820
https://uploadgig.com/file/download/5F4143a44ac8f0a4

Leave a Reply

Your email address will not be published. Required fields are marked *