CHIKARA 2019 10 05 King of Trios 2019 Night 2 720p

CHIKARA 2019 10 05 King of Trios 2019 Night 2 720p WEB h264-NCMP

CHIKARA 2019 10 05 King of Trios 2019 Night 2 720p WEB h264-NCMP
Description
King of Trios 2019 – Night Two
CHIKARA
Saturday, October 5th, 2019

Streamed Live from Reading, PA – Featuring:

The Biggest Tournament in all of Pro Wrestling continues!

    All Four King of Trios 2019 Semi-Final Matches
    2019 Rey de Voladores Four Way Eliminator: Danjerhawk vs
Mat Diamond vs Jude London vs The Whisper
    2019 Rey de Voladores Four Way Eliminator: Paris de Silva vs
Cajun Crawdad vs Alex Zayne vs Freddie Mercurio
    BLANK vs Still Life With Apricots and Pears
    Thomas Santell vs John Francis of Coronado

General
Complete name : CHIKARA.2019.10.05.King.of.Trios.2019.Night.2.720p.WEB.h264-NCMP.mp4
Format : MPEG-4
Format profile : Base Media
Codec ID : isom (isom/iso2/avc1/mp41)
File size : 1.74 GiB
Duration : 2 h 29 min
Overall bit rate : 1 661 kb/s
Writing application : Lavf57.72.101

Video
ID : 1
Format : AVC
Format/Info : Advanced Video Codec
Format profile : [email protected]
Format settings : CABAC / 4 Ref Frames
Format settings, CABAC : Yes
Format settings, Reference : 4 frames
Codec ID : avc1
Codec ID/Info : Advanced Video Coding
Duration : 2 h 29 min
Bit rate : 1 536 kb/s
Width : 1 280 pixels
Height : 720 pixels
Display aspect ratio : 16:9
Frame rate mode : Variable
Frame rate : 29.970 (29970/1000) FPS
Minimum frame rate : 13.593 FPS
Maximum frame rate : 30.303 FPS
Color space : YUV
Chroma subsampling : 4:2:0
Bit depth : 8 bits
Scan type : Progressive
Bits/(Pixel*Frame) : 0.056
Stream size : 1.60 GiB (92%)
Writing library : x264 core 152 r2854 e9a5903
Codec configuration box : avcC

Audio
ID : 2
Format : AAC LC
Format/Info : Advanced Audio Codec Low Complexity
Codec ID : mp4a-40-2
Duration : 2 h 29 min
Bit rate mode : Constant
Bit rate : 129 kb/s
Channel(s) : 2 channels
Channel layout : L R
Sampling rate : 48.0 kHz
Frame rate : 46.875 FPS (1024 SPF)
Compression mode : Lossy
Stream size : 138 MiB (8%)
Default : Yes
Alternate group : 1

https://dropapk.to/6ufw7dddvprf
https://earn4files.com/aan1monc1aab
https://fileup.cc/re6mk7hbz4zi
https://intoupload.net/hilzub7q7psv
http://nitroflare.com/view/4F82ED3831A46E8
https://rapidgator.net/file/69c343f85efe777256722ce379ad5498
https://uploadgig.com/file/download/338d230477Ffd7a1

Leave a Reply

Your email address will not be published. Required fields are marked *