2 Comments on “Brave CF 23 Single fights 720p”

  1. Name: Brave CF 23(Single fights) 720p
    Description:

    Format : MPEG-4
    Format profile : Base Media
    Codec ID : isom (isom/iso2/avc1/mp41)
    Overall bit rate mode : Variable
    Overall bit rate : 2 000 kb/s
    Writing application : Lavf58.20.100

    Video
    ID : 1
    Format : AVC
    Format/Info : Advanced Video Codec
    Format profile : [email protected]
    Format settings : CABAC / 4 Ref Frames
    Format settings, CABAC : Yes
    Format settings, ReFrames : 4 frames
    Format settings, GOP : M=3, N=25
    Codec ID : avc1
    Codec ID/Info : Advanced Video Coding
    Bit rate mode : Variable
    Bit rate : 1 800 kb/s
    Width : 1 280 pixels
    Height : 720 pixels
    Display aspect ratio : 16:9
    Frame rate mode : Constant
    Frame rate : 25.000 FPS
    Color space : YUV
    Chroma subsampling : 4:2:0
    Bit depth : 8 bits
    Scan type : Progressive
    Bits/(Pixel*Frame) : 0.078
    Stream size : 181 MiB (90%)

    Audio
    ID : 2
    Format : AAC
    Format/Info : Advanced Audio Codec
    Format profile : LC
    Codec ID : mp4a-40-2
    Duration : 14 min 1 s
    Duration_LastFrame : -19 ms
    Bit rate mode : Constant
    Bit rate : 192 kb/s
    Channel(s) : 2 channels
    Channel positions : Front: L R
    Sampling rate : 44.1 kHz
    Frame rate : 43.066 FPS (1024 SPF)
    Compression mode : Lossy
    Stream size : 19.3 MiB (10%)
    Default : Yes
    Alternate group : 1

Leave a Reply

Your email address will not be published.