Boxing Turchi Vs McCarthy 2019 10 11 Full PPV 540p

Boxing Turchi Vs McCarthy 2019 10 11 Full PPV 540p WEBRIP x264-WH

dOWNLOAD Boxing Turchi Vs McCarthy 2019 10 11 Full PPV

CARD Samuel Gonzalez vs. Jayro Duran


Valentino Manfredonia vs. Milos Jankovic


Mirko Natalizi vs. Alexander Benidze


Francesco Grandelli vs. Reece Bellotti


Gevorg Khatchikian vs. Matteo Signani


Fabio Turchi vs. Tommy McCarthy
 General
 Complete name                    : 
 Boxing.Turchi.Vs.McCarthy.2019.10.11.Full.PPV.540p.WEBRIP.x264-WH.mp4
 Format                           : MPEG-4
 Format profile                   : Base Media
 Codec ID                         : isom
 File size                        : 6.59 GiB
 Duration                         : 4h 59mn
 Overall bit rate                 : 3 155 Kbps
 Encoded date                     : UTC 2019-09-26 20:46:25
 Tagged date                      : UTC 2019-09-26 20:46:25
 Writing application              : Lavf56.15.102
 Video
 ID                               : 1
 Format                           : AVC
 Format/Info                      : Advanced Video Codec
 Format profile                   : [email protected]
 Format settings, CABAC           : No
 Format settings, ReFrames        : 2 frames
 Codec ID                         : avc1
 Codec ID/Info                    : Advanced Video Coding
 Duration                         : 4h 59mn
 Bit rate mode                    : Variable
 Bit rate                         : 3 000 Kbps
 Width                            : 960 pixels
 Height                           : 540 pixels
 Display aspect ratio             : 16:9
 Frame rate mode                  : Constant
 Frame rate                       : 60.000 fps
 Color space                      : YUV
 Chroma subsampling               : 4:2:0
 Bit depth                        : 8 bits
 Scan type                        : Progressive
 Bits/(Pixel*Frame)               : 0.096
 Stream size                      : 6.28 GiB (95%)
 Writing library                  : x264 core 142
 Language                         : English
 Encoded date                     : UTC 2019-09-26 20:46:25
 Tagged date                      : UTC 2019-09-26 20:46:25
 Audio
 ID                               : 2
 Format                           : AAC
 Format/Info                      : Advanced Audio Codec
 Format profile                   : LC
 Codec ID                         : 40
 Duration                         : 4h 59mn
 Bit rate mode                    : Variable
 Bit rate                         : 140 Kbps
 Maximum bit rate                 : 192 Kbps
 Channel(s)                       : 2 channels
 Channel positions                : Front: L R
 Sampling rate                    : 44.1 KHz
 Compression mode                 : Lossy
 Stream size                      : 300 MiB (4%)
 Language                         : English
 Encoded date                     : UTC 2019-09-26 20:46:25
 Tagged date                      : UTC 2019-09-26 20:46:25

nitroflare

https://nitroflare.com/view/8F456C95846AE17

earn4files

https://earn4files.com/qd7phjp1pt65

fileup
https://fileup.cc/cyeiij9f3ue9

rapidgator
https://rapidgator.net/file/b0a6f5dcf4902789286af0732ffd9141

upload
https://upload.ac/1s4444j4vg0q

uploadgig
https://uploadgig.com/file/download/9E882fca49c03736

earn4files

https://earn4files.com/hjnt412yd17x
https://earn4files.com/kw4f5asi7sdc
https://earn4files.com/meyc0t2xt5ki
https://earn4files.com/anlya308oyzx
https://earn4files.com/861uztk8dzxg

Leave a Reply

Your email address will not be published. Required fields are marked *