Boxing Spence Jr vs Porter PPV 2019 540p WEBRIP x264-WH

Boxing Errol Spence Jr vs Shawn Porter PPV 2019 540p WEBRIP x264-WH

dOWNLOAD Boxing Spence Jr vs Porter PPV 2019 540p

Boxing 2019 09 28 Errol Spence Jr vs Shawn Porter PPV 720p

Name – Boxing.Errol.Spence.Jr.vs.Shawn.Porter.PPV.2019.540p.WEBRIP.x264-WH
Aired – 09.28.2019
Released – 09.29.2019
Source – 720p.MBC
Size – 5.86 GB
Container – MP4
Resolution – 960 x 540p (16:9)
Video – x264 @ 3000 kBPS (60 FBS)
Audio – AAC 152 KBPS
Length – 04:25:18
Releaser – WH Crew

Note: full ppv broadcast

 Bout 1:
 Josesito Lopez
 John Molina Jr

 Bout 2:
 Mario Barrios
 Batyr Akhmedov
 vacant WBA World Super Light Title

 Bout 3:
 Anthony Dirrell
 David Benavidez

 Bout 4:
 Errol Spence Jr
 Shawn Porter
 WBC World Welter Title
 IBF World Welter Title

General
Complete name : Boxing.Errol.Spence.Jr.vs.Shawn.Porter.PPV.2019.540p.WEBRIP.x264-WH.mp4
Format : MPEG-4
Format profile : Base Media
Codec ID : isom
File size : 5.86 GiB
Duration : 4h 25mn
Overall bit rate : 3 164 Kbps
Encoded date : UTC 2019-09-26 20:46:25
Tagged date : UTC 2019-09-26 20:46:25
Writing application : Lavf56.15.102

Video
ID : 1
Format : AVC
Format/Info : Advanced Video Codec
Format profile : [email protected]
Format settings, CABAC : No
Format settings, ReFrames : 2 frames
Codec ID : avc1
Codec ID/Info : Advanced Video Coding
Duration : 4h 25mn
Bit rate mode : Variable
Bit rate : 3 000 Kbps
Width : 960 pixels
Height : 540 pixels
Display aspect ratio : 16:9
Frame rate mode : Constant
Frame rate : 60.000 fps
Color space : YUV
Chroma subsampling : 4:2:0
Bit depth : 8 bits
Scan type : Progressive
Bits/(Pixel*Frame) : 0.096
Stream size : 5.55 GiB (95%)
Writing library : x264 core 142
Language : English
Encoded date : UTC 2019-09-26 20:46:25
Tagged date : UTC 2019-09-26 20:46:25

Audio
ID : 2
Format : AAC
Format/Info : Advanced Audio Codec
Format profile : LC
Codec ID : 40
Duration : 4h 25mn
Bit rate mode : Variable
Bit rate : 152 Kbps
Maximum bit rate : 320 Kbps
Channel(s) : 2 channels
Channel positions : Front: L R
Sampling rate : 44.1 KHz
Compression mode : Lossy
Stream size : 288 MiB (5%)
Language : English
Encoded date : UTC 2019-09-26 20:46:25
Tagged date : UTC 2019-09-26 20:46:25

download

1fichier

https://1fichier.com/?8dzq8m0bh9xah1jcsp8z

4downfiles
https://4downfiles.org/526n33bnf441

dl.free.fr
http://dl.free.fr/laqEoEGd1

earn4files
https://earn4files.com/usdk7ji0bv1i

fileup
https://fileup.cc/sf27nmk1vvnl

multiup
https://multiup.org/download/0ebe2451a1d5e71552a819cbf17d74cb

nitroflare
http://nitroflare.com/view/07268A238A781B0

rapidgator
https://rapidgator.net/file/c25c919eab1df61397eb4ec87495ff82

uploadgig
https://uploadgig.com/file/download/922f613822e77F36

1 GB [6 PARTs] // INTERCHANGEABLE LINKs

4downfiles

https://4downfiles.org/6jakt14rycwr
https://4downfiles.org/a88ezk0pc23y
https://4downfiles.org/s6fumi5rikq3
https://4downfiles.org/69rgedjctx6s
https://4downfiles.org/6xpmr9qangrv
https://4downfiles.org/vb8xqhvxhngc

anonfile
https://anonfile.com/l3e8n079nd
https://anonfile.com/n9efn272n2
https://anonfile.com/a2ebn776nd
https://anonfile.com/r2e4nd7dn9
https://anonfile.com/U8f5n079n1
https://anonfile.com/D1eene78n8

bdupload
https://dl.bdupload.in/jclu25ud8qsr
https://dl.bdupload.in/h9nybqgk5lk0
https://dl.bdupload.in/w7lzq66q8b9s
https://dl.bdupload.in/pgkja5q1izmi
https://dl.bdupload.in/7u7p76d6jdxy
https://dl.bdupload.in/3hdnkdynvsas

ddl.to
https://ddl.to/37xjbu9cjk9t
https://ddl.to/jfkwwrsdv38c
https://ddl.to/ghh3jbdazevs
https://ddl.to/fwas4yamnnzq
https://ddl.to/iyh9hoy10j4d
https://ddl.to/eyqkfpshzb4o

earn4files
https://earn4files.com/vwj16yub4v3s
https://earn4files.com/evwbhauvplcn
https://earn4files.com/xwn59tfmm6d4
https://earn4files.com/gsyy5i68e587
https://earn4files.com/bpizltabch6d
https://earn4files.com/r30jbaxff52h

file.bz
https://file.bz/E9e3n87en7
https://file.bz/f0h9ne7an7
https://file.bz/wahbn17dn9
https://file.bz/1bhdn779n5
https://file.bz/l6h2nc71nf
https://file.bz/48h5n17ana

share-online
http://www.share-online.biz/dl/5N2PBLYPI3IX
http://www.share-online.biz/dl/4DL4CLYP16
http://www.share-online.biz/dl/2507CLYPR3
http://www.share-online.biz/dl/Q0I6CLYP3RH6
http://www.share-online.biz/dl/5A19CLYP21M0
http://www.share-online.biz/dl/BLRACLYPET

uptomega
https://uptomega.com/njwbgrllq1oh
https://uptomega.com/5nyn9wghcq04
https://uptomega.com/y8tao6o5rq5n
https://uptomega.com/09ne2tg2hzqn
https://uptomega.com/5jpm8wjya69i
https://uptomega.com/xsb4r64f8c3p

Leave a Reply

Your email address will not be published. Required fields are marked *