Top Rank Boxing on ESPN 2020 06 23 1080i

Top Rank Boxing on ESPN 2020 06 23 1080i HDTV -ESPN [26.5 GB]

Top Rank Boxing on ESPN 2020 06 23 1080i
Fight Card
DescriptionTop Rank Boxing on ESPN 06-23-2020 HDTV 1080i TS AC3 – ESPN
Source: Digital Cable
Video Quality: Excellent
Audio Quality: Excellent
Language: English
Entrances: yes
Intros: yes
Between rounds: no
Post Interviews: yes

Rank Boxing




Andrew Moloney vs. Joshua Franco
World Boxing Association World Super Fly Title


Christopher Diaz vs. Jason Sanchez


Rolando Vargas vs. Miguel Contreras


Helaman Olguin vs. Adam Stewart
ScreenShots
Top Rank Boxing on ESPN 2020 06 23 1080i
File inFormation

Rank boxing HDTV 1080i TS AC3.ts
Format            : MPEG-TS at 19.2 Mb/s
Length            : 26.5 GiB for 3 h 17 min 25 s 793 ms

Video #0          : AVC at 17.6 Mb/s
Aspect            : 1920 x 1080 (1.778) at 29.970 fps

Audio #0          : AC-3 at 640 kb/s
Infos             : 6 channels, 48.0 kHz
Language          : en
– ESPN 2020 06 23

Single download links

Rapidgator // Nitroflare // More Links

detaild file information

General
Format : MPEG-TS
File size : 26.5 GiB
Duration : 3 h 17 min
Overall bit rate mode : Constant
Overall bit rate : 19.2 Mb/s

Video
ID : rank boxing
Menu ID : 1 (0x1)
Format : AVC
Codec ID : Espn 2020 06 23
Duration : 2 h 59 min
Bit rate : 17.6 Mb/s
Width : 1 920 pixels
Height : 1 080 pixels
Display aspect ratio : 16:9
Frame rate : 29.970 (30000/1001) FPS
Color space : YUV
Chroma subsampling : 4:2:0
Bit depth : 8 bits
Scan type : MBAFF
Scan order :rank boxing
Bits/(Pixel*Frame) : 0.283
Stream size : 22.0 GiB (83%)

Audio
ID : rank boxing
Menu ID : Espn 2020 06 23
Format : AC-3
Format/Info : Audio Coding 3
Commercial name : Dolby Digital
Codec ID : Top rank
Duration : 3 h 17 min
Bit rate mode : Constant
Bit rate : 640 kb/s
Channel(s) : 6 channels
Channel layout : L R C LFE Ls Rs
Sampling rate : 48.0 kHz
Frame rate : 31.250 FPS (1536 SPF)
Compression mode : Lossy
Stream size : 904 MiB (3%)
Language : English
Service kind : ESPN 2020 06 23
Duration_Source : rank boxing

References

WH homepage

 220 total views,  1 views today

Top Rank Boxing on ESPN 2020 06 23 1080i

WH : Source OF Wrestling Releases / Home OF WH Releases

Buy Premium or Renew From WH Links to Keep it Alive

About PH.M.H

[Wrestling Best Uploader]

View all posts by PH.M.H →