Top Rank Boxing on ESPN 2020 06 20 720p HDTV x264-WH

Top Rank Boxing on ESPN 2020 06 20 720p HDTV x264-WH [3.33 GB]

Top Rank Boxing on ESPN 2020 06 20 720p HDTV x264-WH
Top.Rank.Boxing.on.ESPN.2020.06.20.720p.HDTV.x264-WH [3.33 GB]

RELEASE.DATE.: 06.21.2020              PROFiLE.....: High 4.1 CRF 25
RUNNiNG TiME.: 01h:39m:52s             AUDiO.......: AAC 
SiZE.........: 3.33 GB                 BiTRATE.....: 4500 kbit
LANGUAGE.....: English                 FORMAT......: x264 @ 59.94 FPS
Encode.......: WH Crew                 Container...: MP4
SOURCE...... : HDTV                    ViDEO.RES...: 16:9 @ 1280*720p

Edwin Palomares vs. Carlos Ornelas


Emanuel Navarrete vs. Uriel Lopez


Sergio Alfredo Chirino Sanchez vs. Gustavo Alan Pina


Ivan Armando Garcia Carrillo vs. Roberto Palomares

General
Complete name :Top.Rank.Boxing.on.ESPN.2020.06.20.720p.HDTV.x264-WH.mp4
Format : MPEG-4
Format profile : Base Media
Codec ID : isom (isom/iso2/avc1/mp41)
File size : 3.34 GiB
Duration : 1 h 39 min
bit rate mode : Variable
Overall bit rate : 4 784 kb/s

Video
ID : 1
Format : AVC
Codec ID : avc1
Duration : 1 h 39 min
Bit rate : 4 500 kb/s
Width : 1 280 pixels
Height : 720 pixels
Display aspect ratio : 16:9
Frame rate mode : Constant
Frame rate : 60.000 FPS
Color space : YUV
Chroma subsampling : 4:2:0
Bit depth : 8 bits
Scan type : Progressive
Bits/(Pixel*Frame) : 0.081
Stream size : 3.11 GiB (93%)
Writing library : x264 core 142
Codec configuration box : avcC

Audio
ID : 2
Format : AAC LC
Codec ID : mp4a-40-2
Duration : 1 h 39 min
Bit rate mode : Variable
Bit rate : 316 kb/s
Maximum bit rate : 320 kb/s
Channel(s) : 6 channels
Channel layout : C L R Ls Rs LFE
Sampling rate : 44.1 kHz
Frame rate : 43.066 FPS (1024 SPF)
Compression mode : Lossy
Stream size : 226 MiB (7%)
Default : Yes
Alternate group : 1

Rapidgator // Nitroflare // Uploadgig // More links

References – Homepage

 240 total views,  1 views today

Top Rank Boxing on ESPN 2020 06 20 720p HDTV x264-WH

WH : Source OF Wrestling Releases / Home OF WH Releases

Buy Premium or Renew From WH Links to Keep it Alive

About PH.M.H

[Wrestling Best Uploader]

View all posts by PH.M.H →

One Comment on “Top Rank Boxing on ESPN 2020 06 20 720p HDTV x264-WH”

Leave a Reply

Your email address will not be published. Required fields are marked *