Top Rank Boxing On ESPN 2020 06 17 720p

Top Rank Boxing On ESPN 2020 06 17 720p HDTV x264-ESPN

Event
Top Rank Boxing On ESPN 2020 06 17 720p
Match Card
DescriptionTop Rank Boxing on ESPN 06-16-2020 HDTV 720p TS AC3 – ESPN
Source: TS FILE
Video Quality: Excellent
Audio Quality: Excellent
Language: English
Entrances: yes
Intros: yes
Between rounds: no
Post Interviews: yes

 
Giovani Santillan vs. Antonio DeMarco


Hector Perez vs. Juan Torres


Cameron Krael vs. Bobirzhan Mominov


Joshua Greer Jr vs. Mike Plania
Screen Shot
Top Rank Boxing On ESPN 2020 06 17 720p
File inFormation

Top Rank Boxing On Espn 06-17-2020 Hdtv 720p Ts Ac3.m4v
Format            : MPEG-4 at 2 971 kb/s
Length            : 4.10 GiB for 3 h 17 min 23 s 165 ms

Video #0          : AVC at 2 158 kb/s
Aspect            : 1280 x 720 (1.781) at 29.970 fps

Audio #0          : AAC at 161 kb/s
Infos             : 2 channels, 48.0 kHz
Language          : en

Audio #1          : AC-3 at 640 kb/s
Infos             : 6 channels, 48.0 kHz
Language          : en

Single download links

Rapidgator // Nitroflare // Uploadgig // ddl // RockFile

references

Home PagePremium Site

More detailed info

General
Complete name : Hdtv 720p Ts Ac3.m4v
Format : MPEG-4
Format profile : Base Media / Version 2
Codec ID : mp42 (isom/iso2/avc1/mp41)
File size : 4.10 GiB
Duration : 3 h 17 min
Overall bit rate : 2 971 kb/s

Video
ID : Rank Boxing
Format : AVC
Duration : 3 h 17 min
Bit rate : 2 158 kb/s
Width : 1 280 pixels
Height : 720 pixels
Display aspect ratio : 16:9
Frame rate mode : Variable
Frame rate : 29.970 (29970/1000) FPS
Minimum frame rate : 3.746 FPS
Maximum frame rate : 29.970 FPS
Color space : YUV
Chroma subsampling : 4:2:0
Bit depth : 8 bits
Scan type : Progressive
Bits/(Pixel*Frame) : 0.078
Stream size : 2.98 GiB (73%)
Color range : Rank Boxing
Color primaries : BT.709
Transfer characteristics : BT.709
Matrix coefficients : BT.709
Codec configuration box : avcC

Audio #1
ID : Rank Boxing
Format : AAC LC
Codec ID : mp4a-40-2
Duration : 3 h 17 min
Bit rate mode : Constant
Bit rate : 161 kb/s
Channel(s) : 2 channels
Channel layout : Rank Boxing
Sampling rate : 48.0 kHz
Frame rate : 46.875 FPS (1024 SPF)
Compression mode : Lossy
Stream size : 227 MiB (5%)
Title : Stereo
Language : English
Default : Rank BOxing
Alternate group : 1
Fallback From : 3

Audio #2
ID : 3
Format : AC-3
Format/Info : Audio Coding 3
Commercial name :Rank Boxing
Codec ID : ac-3
Duration : 3 h 17 min
Bit rate mode : Constant
Bit rate : 640 kb/s
Channel(s) : 6 channels
Channel layout : L R C LFE Ls Rs
Sampling rate : 48.0 kHz
Frame rate : 31.250 FPS (1536 SPF)
Compression mode : Lossy
Stream size : 904 MiB (22%)
Title : Surround
Language : English
Service kind : Complete Main
Default : Inherited From: 2
Fallback To : Rank Boxing

 274 total views,  1 views today

Top Rank Boxing On ESPN 2020 06 17 720p

WH : Source OF Wrestling Releases / Home OF WH Releases

Buy Premium or Renew From WH Links to Keep it Alive

About PH.M.H

[Wrestling Best Uploader]

View all posts by PH.M.H →

One Comment on “Top Rank Boxing On ESPN 2020 06 17 720p”

Leave a Reply

Your email address will not be published. Required fields are marked *