Top Rank Boxing 2020 06 11 1080i HDTV -WH

Top Rank Boxing 2020 06 11 1080i HDTV -WH [21.5 GB]

Top Rank Boxing 2020 06 11 1080i HDTV -WH

General
Complete name : Top.Rank.Boxing.2020.06.11.1080i.HDTV-WH.ts
Format : MPEG-TS
File size : 21.5 GiB
Duration : 3 h 6 min
Overall bit rate mode : Variable
Overall bit rate : 16.5 Mb/s

Video
Format : AVC
Codec ID : 27
Duration : 3 h 6 min
Bit rate : 14.9 Mb/s
Width : 1 920 pixels
Height : 1 080 pixels
Display aspect ratio : 16:9
Frame rate : 25.000 FPS
Color space : YUV
Chroma subsampling : 4:2:0
Bit depth : 8 bits
Scan type : Interlaced
Scan order : Top Field First
Bits/(Pixel*Frame) : 0.287
Stream size : 19.4 GiB (90%)
Color range : Limited
Color primaries : BT.709
Transfer characteristics : BT.709
Matrix coefficients : BT.709

Audio #1
Format : MPEG Audio
Format version : Version 1
Format profile : Layer 2
Codec ID : 3
Duration : 3 h 6 min
Bit rate mode : Constant
Bit rate : 384 kb/s
Channel(s) : 2 channels
Sampling rate : 48.0 kHz
Frame rate : 41.667 FPS (1152 SPF)
Compression mode : Lossy
Stream size : 513 MiB (2%)
Language : English

Audio #2
Format : MPEG Audio
Format version : Version 1
Format profile : Layer 2
Codec ID : 3
Duration : 3 h 6 min
Bit rate mode : Constant
Bit rate : 384 kb/s
Channel(s) : 2 channels
Sampling rate : 48.0 kHz
Frame rate : 41.667 FPS (1152 SPF)
Compression mode : Lossy
Stream size : 513 MiB (2%)
Language : English

Jessie Magdaleno vs. Yenifel Vicente

Adam Lopez vs. Luis Coria


vacant NABF Feather Title

Eric Mondragon vs. Mike Danny Sanchez

Gabriel Muratalla vs. Fernando Robles
Top Rank Boxing 2020 06 11 1080i HDTV -WH
Top Rank Boxing 2020 06 11 1080i HDTV -WH
Top Rank Boxing 2020 06 11 1080i HDTV -WH
Top Rank Boxing 2020 06 11 1080i HDTV -WH
Top Rank Boxing 2020 06 11 1080i HDTV -WH
Top Rank Boxing 2020 06 11 1080i HDTV -WH
Top Rank Boxing 2020 06 11 1080i HDTV -WH

 249 total views,  1 views today

Top Rank Boxing 2020 06 11 1080i HDTV -WH

WH : Source OF Wrestling Releases / Home OF WH Releases

Buy Premium or Renew From WH Links to Keep it Alive

About PH.M.H

[Wrestling Best Uploader]

View all posts by PH.M.H →

One Comment on “Top Rank Boxing 2020 06 11 1080i HDTV -WH”

Leave a Reply

Your email address will not be published. Required fields are marked *