Showtime Championship Boxing 2020 01 25 720p -WH

Showtime Championship Boxing 2020 01 25 720p HDTV x264-WH

Showtime Championship Boxing 2020 01 25 720p -WH

Showtime.Championship.Boxing.2020.01.25.720p.HDTV.x264-WH.mp4
Format : MPEG-4
Format profile : Base Media
Codec ID : isom
File size : 6.94 GiB
Duration : 3h 33mn
Overall bit rate : 4 645 Kbps
Writing application : Lavf56.15.102

Video
ID : 1
Format : AVC
Codec ID : avc1
Codec ID/Info : Advanced Video Coding
Duration : 3h 33mn
Bit rate mode : Variable
Bit rate : 4 500 Kbps
Width : 1 280 pixels
Height : 720 pixels
Display aspect ratio : 16:9
Frame rate mode : Constant
Frame rate : 29.970 fps
Color space : YUV
Chroma subsampling : 4:2:0
Bit depth : 8 bits
Scan type : Progressive
Bits/(Pixel*Frame) : 0.163
Stream size : 6.70 GiB (97%)
Writing library : x264 core 142
Language : English

Audio
ID : 2
Format : AAC
Codec ID : 40
Duration : 3h 33mn
Bit rate mode : Variable
Bit rate : 152 Kbps
Maximum bit rate : 224 Kbps
Channel(s) : 2 channels
Channel positions : Front: L R
Sampling rate : 44.1 KHz
Compression mode : Lossy
Stream size : 233 MiB (3%)
Language : English


fileup.cc/a6shyc9esj02

k2s.cc/file/4aa70488af77a

uploadgig.com/file/download/2c3F85aB6eCe7a03

nitroflare.com/view/A258076D348EBE1

rapidgator.net/file/3813665e9ec8b22fac11b839e6903930

 115 total views,  1 views today

Showtime Championship Boxing 2020 01 25 720p -WH

WH : Source OF Wrestling Releases / Home OF WH Releases

Buy Premium or Renew From WH Links to Keep it Alive

About PH.M.H

[Wrestling Best Uploader]

View all posts by PH.M.H →

One Comment on “Showtime Championship Boxing 2020 01 25 720p -WH”

Leave a Reply

Your email address will not be published. Required fields are marked *