PBC Fight Night 2020 02 01 720p HDTV x264-WH

Spread the love

PBC Fight Night 2020 02 01 720p HDTV x264-WH

PBC Fight Night 2020 02 01 720p HDTV x264-WH
                 ■ Wrestling-Home [WH] P R E S E N T S ■

             PBC.Fight.Night.2020.02.01.720p.HDTV.x264-WH 

    RELEASE.DATE.: 02.04.2020              PROFiLE......: High 4.1 CRF 25
    RUNNiNG TiME.: 02h:14m:03s             AUDiO........: AAC LC VBR 2CH
    SiZE.........: 4500 MB                 BiTRATE......: 4500 kbit
    LANGUAGE.....: ENGLISH                 FORMAT.......: x264 @ 29.97FPS
    SUBTiTLES....: N/A                     ViDEO.RES....: 16:9 @ 1280x720
    SOURCE.......: Fox sport               FSK..........: 16

General
Complete name : PBC.Fight.Night.2020.02.01.720p.HDTV.x264-WH.mp4
Format : MPEG-4
Format profile : Base Media
Codec ID : isom
File size : 4.35 GiB
Duration : 2h 14mn
Overall bit rate : 4 631 Kbps
Writing application : Lavf56.15.102

Video
Duration : 2h 14mn
Bit rate mode : Variable
Bit rate : 4 500 Kbps
Width : 1 280 pixels
Height : 720 pixels
Display aspect ratio : 16:9
Frame rate mode : Constant
Frame rate : 29.970 fps
Color space : YUV
Chroma subsampling : 4:2:0
Bit depth : 8 bits
Scan type : Progressive
Bits/(Pixel*Frame) : 0.163
Stream size : 4.20 GiB (97%)
Writing library : x264 core 142
Language : English

Audio
ID : 2
Format : AAC
Format/Info : Advanced Audio Codec
Format profile : LC
Codec ID : 40
Duration : 2h 14mn
Bit rate mode : Variable
Bit rate : 152 Kbps
Maximum bit rate : 192 Kbps
Channel(s) : 2 channels
Channel positions : Front: L R
Sampling rate : 44.1 KHz
Compression mode : Lossy
Stream size : 146 MiB (3%)
Language : English

PBC Fight Night 2020 02 01 720p HDTV x264-WH

About PH.M.H

[Wrestling Best Uploader]

View all posts by PH.M.H →

2 Comments on “PBC Fight Night 2020 02 01 720p HDTV x264-WH”



  1. Watch PBC Fight Night 2/1/20 – Ugas vs Dallas

    PBC Fight Night 2020 02 01 720p HDTV x264-WH

    • Omar Juarez vs. Angel Martinez Hernandez
    • Raymond Guajardo vs. Clay Collard
    • Michel Rivera vs. Fidel Maldonado Jr
    • Yordenis Ugas vs. Mike Dallas Jr

    Watch PBC Fight Night 2/1/20 – Ugas vs Dallas – 1st Feb 2020

    waaw

    vidlox

    Streamz

    Download PBC Fight Night 2/1/20 – Ugas vs Dallas HD / 720p

    vipWH

Leave a Reply

Your email address will not be published. Required fields are marked *