Max On Boxing 2020 06 25 1080p HDTV -ESPN

Max On Boxing 2020 06 25 1080p HDTV -ESPN

Max On Boxing 2020 06 25 1080p -25th june 2020
Max On Boxing 2020 06 25 1080p HDTV -ESPN
File information

Boxing 06-25-2020 HDTV 1080p MP4 ACC.mp4
Format            : MPEG-4 at 31.7 Mb/s
Length            : 4.87 GiB for 21 min 58 s 665 ms

Video #0          : AVC at 31.4 Mb/s
Aspect            : 1920 x 1080 (1.778) at 30.000 fps

Audio #0          : AAC at 317 kb/s
Infos             : 2 channels, 48.0 kHz
Language          : en

Screenshots
Max On Boxing 2020 06 25 1080p HDTV -ESPN
Max On Boxing 2020 06 25 1080p HDTV -ESPN
Single download links

Rapidgator // NitroFlare // Uploadgig

more detailed information

General
Complete name : Max On Boxing 06-25-2020 HDTV 1080p MP4 ACC.mp4
Format : MPEG-4
Format profile : Base Media
Codec ID : isom (isom/iso2/avc1/mp41)
File size : 4.87 GiB
Duration : 21 min 58 s
Overall bit rate : 31.7 Mb/s
Writing application : boxing 2020 06 25

Video
ID : boxing 2020 06 25
Format : AVC
Duration : 21 min 58 s
Bit rate : 31.4 Mb/s
Width : 1 920 pixels
Height : 1 080 pixels
Display aspect ratio : 16:9
Frame rate mode : Constant
Frame rate : 30.000 FPS
Color space : YUV
Chroma subsampling : 4:2:0
Bit depth : 8 bits
Scan type : Progressive
Bits/(Pixel*Frame) : 0.504
Stream size : 4.82 GiB (99%)
Color range : Limited
Color primaries : BT.709
Transfer characteristics : BT.709
Matrix coefficients : BT.709
Menus : boxing 2020 06 25
Codec configuration box : avcC

Audio
ID : boxing 2020 06 25
Format : AAC LC
Codec ID : mp4a-40-2
Duration : 21 min 58 s
Duration_LastFrame : -21 ms
Bit rate mode : Constant
Bit rate : 317 kb/s
Channel(s) : 2 channels
Channel layout : L R
Sampling rate : 48.0 kHz
Frame rate : 46.875 FPS (1024 SPF)
Compression mode : Lossy
Stream size : 49.9 MiB (1%)
Language : English
Default : boxing 2020 06 25
Alternate group : 1
Menus : boxing 2020 06 25

references

homepagePremium site

 173 total views,  1 views today

Max On Boxing 2020 06 25 1080p HDTV -ESPN

WH : Source OF Wrestling Releases / Home OF WH Releases

Buy Premium or Renew From WH Links to Keep it Alive

About PH.M.H

[Wrestling Best Uploader]

View all posts by PH.M.H →

Leave a Reply

Your email address will not be published. Required fields are marked *