Boxing KSI vs Logan Paul 2 2019 11 09 Full Event 720p

Spread the love

Boxing KSI vs Logan Paul 2 2019 11 09 Full Event 720p WEBRIP x264-WH

Boxing KSI vs Logan Paul 2 2019 11 09 Full Event 720p

General
Complete name :

Boxing.KSI.vs.Logan.Paul.2.2019.11.09.Full.Event.720p.WEBRIP.x264-WH.mp4
Format : MPEG-4
Format profile : Base Media
Codec ID : isom (isom/iso2/avc1/mp41)
File size : 11.7 GiB
Duration : 6 h 0 min
Overall bit rate mode : Variable
Overall bit rate : 4 656 kb/s
Encoded date : UTC 2019-09-26 20:46:25
Tagged date : UTC 2019-09-26 20:46:25
Writing application : Lavf56.15.102
Video
ID : 1
Format : AVC
Format/Info : Advanced Video Codec
Format profile : [email protected]
Format settings : 2 Ref Frames
Format settings, CABAC : No
Format settings, Reference : 2 frames
Format settings, GOP : M=1, N=2
Codec ID : avc1
Codec ID/Info : Advanced Video Coding
Duration : 6 h 0 min
Bit rate : 4 500 kb/s
Width : 1 280 pixels
Height : 720 pixels
Display aspect ratio : 16:9
Frame rate mode : Constant
Frame rate : 60.000 FPS
Color space : YUV
Chroma subsampling : 4:2:0
Bit depth : 8 bits
Scan type : Progressive
Bits/(Pixel*Frame) : 0.081
Stream size : 11.3 GiB (96%)
Writing library : x264 core 142
Language : English
Encoded date : UTC 2019-09-26 20:46:25
Tagged date : UTC 2019-09-26 20:46:25
Codec configuration box : avcC
Audio
ID : 2
Format : AAC LC
Format/Info : Advanced Audio Codec Low Complexity
Codec ID : mp4a-40-2
Duration : 6 h 0 min
Bit rate mode : Variable
Bit rate : 152 kb/s
Maximum bit rate : 192 kb/s
Channel(s) : 2 channels
Channel layout : L R
Sampling rate : 44.1 kHz
Frame rate : 43.066 FPS (1024 SPF)
Compression mode : Lossy
Stream size : 392 MiB (3%)
Language : English
Default : Yes
Alternate group : 1
Encoded date : UTC 2019-09-26 20:46:25
Tagged date : UTC 2019-09-26 20:46:25

Boxing KSI vs Logan Paul 2 2019 11 09 Full Event 720p

nitroflare.com/view/CE25D46B1E4FD9B

fileup.cc/et9boihet4h4
dropapk.to/ss0pvdjps1cm
earn4files.com/h77uyirkj15t

rapidgator.net/file/c61d90b0697877c2afcbdf8dfd8c062e

dropapk

dropapk.to/uhseyazh6ku5
dropapk.to/jz8xm20mcup8
dropapk.to/879jchtn8yxv
dropapk.to/37wqdjelafmf
dropapk.to/ll20ppahmnml
dropapk.to/phm6gs2k58r2
dropapk.to/oxcjcee4czky
dropapk.to/l9l4lignzhgl

earn4files
earn4files.com/535vrliqrmqd
earn4files.com/cpk0i8uzftco
earn4files.com/s0wystsokmgb
earn4files.com/0fg5rtt3y203
earn4files.com/aie6apz80raq
earn4files.com/pp86l8ty6q56
earn4files.com/hc0xbb55qsi4
earn4files.com/hxrh7ssogb3b

rockfile
rockfile.co/4zbg7zkmkvzl.html
rockfile.co/6qfo1b023mnm.html
rockfile.co/qc7cxbl86aw2.html
rockfile.co/vmyd5jttocxw.html
rockfile.co/jqjrogi7b7i9.html
rockfile.co/e3awngk7p8rh.html
rockfile.co/dthc5k9bs3kk.html
rockfile.co/eilprc8u9762.html

upload
upload.ac/qfk3tz8okddn
upload.ac/vcwpjp8reoez
upload.ac/sj9qvouscwxk
upload.ac/umkdvgal93q2
upload.ac/7c74561z1ebr
upload.ac/ss00c5ke4zkk
upload.ac/m5pzk1a5m12o
upload.ac/qdq5qbjvsq16

Leave a Reply

Your email address will not be published. Required fields are marked *