Boxing 2019 06 01 Joshua vs Ruiz Jr FULL PPV 1080p WEB x264-MBC

Boxing 2019 06 01 Joshua vs Ruiz Jr FULL PPV 1080p WEB x264-MBC

Boxing 2019 06 01 Joshua vs Ruiz Jr FULL PPV 1080p WEB x264-MBC

Boxing 2019 06 01 Joshua vs Ruiz Jr FULL PPV 1080p WEB x264-MBC

Boxing 2019 06 01 Joshua vs Ruiz Jr FULL PPV 1080p WEB x264-MBC
Boxing 2019 06 01 Joshua vs Ruiz Jr FULL PPV 1080p WEB x264-MBC
Boxing 2019 06 01 Joshua vs Ruiz Jr FULL PPV 1080p WEB x264-MBC
Boxing 2019 06 01 Joshua vs Ruiz Jr FULL PPV 1080p WEB x264-MBC
Boxing 2019 06 01 Joshua vs Ruiz Jr FULL PPV 1080p WEB x264-MBC
Boxing 2019 06 01 Joshua vs Ruiz Jr FULL PPV 1080p WEB x264-MBC
Boxing 2019 06 01 Joshua vs Ruiz Jr FULL PPV 1080p WEB x264-MBC
Boxing 2019 06 01 Joshua vs Ruiz Jr FULL PPV 1080p WEB x264-MBC
Boxing 2019 06 01 Joshua vs Ruiz Jr FULL PPV 1080p WEB x264-MBC

event: DAZN
Madison Square Garden, New York, New York, USA
date: 2019-06-01
source: WEB
subtitles: no

 note: entire main card

Bout 1:
 Katie Taylor
 Delfine Persoon
 IBF World Female Lightweight Title
 WBA World Female Lightweight Title
 WBC World Female Lightweight Title
 WBO World Female Lightweight Title


 Bout 2:
 Callum Smith
 Hassan N’Dam N’Jikam
 WBA Super World Super Middleweight Title
 WBC Diamond Super Middleweight Title

 Bout 3:
 Anthony Joshua
 Andy Ruiz Jr
 IBF World Heavyweight Title
 IBO World Heavyweight Title
 WBA Super World Heavyweight Title
 WBO World Heavyweight Title

More Boxing Content –

Format                                   : MPEG-4
Format profile                           : Base Media
Codec ID                                 : isom (isom/iso2/avc1/mp41)
File size                                : 6.03 GiB
Duration                                 : 2 h 53 min
Overall bit rate                         : 4 977 kb/s
Writing application                      : Lavf58.19.102

Video
ID                                       : 1
Format                                   : AVC
Format/Info                              : Advanced Video Codec
Format profile                           : [email protected]
Format settings                          : 1 Ref Frames
Format settings, CABAC                   : No
Format settings, ReFrames                : 1 frame
Codec ID                                 : avc1
Codec ID/Info                            : Advanced Video Coding
Duration                                 : 2 h 53 min
Bit rate                                 : 4 840 kb/s
Width                                    : 1 920 pixels
Height                                   : 1 080 pixels
Display aspect ratio                     : 16:9
Frame rate mode                          : Constant
Frame rate                               : 30.000 FPS
Color space                              : YUV
Chroma subsampling                       : 4:2:0
Bit depth                                : 8 bits
Scan type                                : Progressive
Bits/(Pixel*Frame)                       : 0.078
Stream size                              : 5.86 GiB (97%)
Writing library                          : x264 core 157 r2935 545de2f
Language                                 : English
Codec configuration box                  : avcC

Audio
ID                                       : 2
Format                                   : AAC LC
Format/Info                              : Advanced Audio Codec Low Complexity
Codec ID                                 : mp4a-40-2
Duration                                 : 2 h 53 min
Bit rate mode                            : Constant
Bit rate                                 : 129 kb/s
Channel(s)                               : 2 channels
Channel layout                           : L R
Sampling rate                            : 48.0 kHz
Frame rate                               : 46.875 FPS (1024 SPF)
Compression mode                         : Lossy
Stream size                              : 160 MiB (3%)
Language                                 : English
Default                                  : Yes
Alternate group                          : 1

Boxing 2019 06 01 Joshua vs Ruiz Jr FULL PPV 1080p WEB x264-MBC

1fichier.com/?d4c4yy2gt5z86t4fgsou
bayfiles.com/QdY4Met6n7
bitster.cz/file/7c2541
dl.free.fr/mj7mlf1nC
file.bz/F2Y2M0tfn6
filerio.in/ygvwxx7h5rm6
filescdn.net/1s6w1qvm5ypi
multiup.org/download/75963ef595147fbc03f8ffc10edab16f
openload.co/f/Hz22koh4h4U
rg.to/file/a7a53d492cf8c5563f093bd51c784a97
turbobit.net/yriasb0pjia8.html

 105 total views,  2 views today

Boxing 2019 06 01 Joshua vs Ruiz Jr FULL PPV 1080p WEB x264-MBC

WH : Source OF Wrestling Releases / Home OF WH Releases

Buy Premium or Renew From WH Links to Keep it Alive

About PH.M.H

[Wrestling Best Uploader]

View all posts by PH.M.H →

Leave a Reply

Your email address will not be published. Required fields are marked *