2 Comments on “Boxing 2019 04 27 Showtime Boxing 720p WEB-DL-MBC”

  1. – More Boxing Content –

    Format : Matroska
    Format version : Version 4
    File size : 5.25 GiB
    Duration : 2 h 48 min
    Overall bit rate : 4 455 kb/s

    Video
    ID : 1
    Format : AVC
    Format/Info : Advanced Video Codec
    Format profile : [email protected]
    Format settings : CABAC / 4 Ref Frames
    Format settings, CABAC : Yes
    Format settings, ReFrames : 4 frames
    Codec ID : V_MPEG4/ISO/AVC
    Duration : 2 h 48 min
    Bit rate mode : Constant
    Bit rate : 4 372 kb/s
    Width : 1 280 pixels
    Height : 720 pixels
    Display aspect ratio : 16:9
    Frame rate mode : Variable
    Frame rate : 59.478 FPS
    Original frame rate : 59.940 (60000/1001) FPS
    Color space : YUV
    Chroma subsampling : 4:2:0
    Bit depth : 8 bits
    Scan type : Progressive
    Bits/(Pixel*Frame) : 0.080
    Stream size : 5.10 GiB (97%)
    Default : Yes
    Forced : No

    Audio
    ID : 2
    Format : AAC LC
    Format/Info : Advanced Audio Codec Low Complexity
    Codec ID : A_AAC-2
    Duration : 2 h 48 min
    Bit rate : 124 kb/s
    Channel(s) : 2 channels
    Channel layout : L R
    Sampling rate : 48.0 kHz
    Frame rate : 46.875 FPS (1024 SPF)
    Compression mode : Lossy
    Delay relative to video : -23 ms
    Stream size : 150 MiB (3%)
    Default : Yes
    Forced : No

Leave a Reply

Your email address will not be published.