6 Comments on “Boxing 2019 04 13 Showtime Boxing Special Edition 720p HDTV x264-MBC”

  1. – More Boxing Content –

    Format : Matroska
    Format version : Version 4
    File size : 3.33 GiB
    Duration : 2 h 36 min
    Overall bit rate : 3 052 kb/s
    Writing application : Lavf58.20.100
    Writing library : Lavf58.20.100
    ErrorDetectionType : Per level 1

    Video
    ID : 1
    Format : AVC
    Format/Info : Advanced Video Codec
    Format profile : [email protected]
    Format settings : CABAC / 4 Ref Frames
    Format settings, CABAC : Yes
    Format settings, ReFrames : 4 frames
    Codec ID : V_MPEG4/ISO/AVC
    Duration : 2 h 36 min
    Bit rate : 2 864 kb/s
    Width : 1 280 pixels
    Height : 720 pixels
    Display aspect ratio : 16:9
    Frame rate mode : Constant
    Frame rate : 30.000 FPS
    Color space : YUV
    Chroma subsampling : 4:2:0
    Bit depth : 8 bits
    Scan type : Progressive
    Bits/(Pixel*Frame) : 0.104
    Stream size : 3.13 GiB (94%)
    Writing library : x264 core 152
    Default : Yes

    Audio
    ID : 2
    Format : MPEG Audio
    Format version : Version 1
    Format profile : Layer 3
    Format settings : Joint stereo / MS Stereo
    Codec ID : A_MPEG/L3
    Codec ID/Hint : MP3
    Duration : 2 h 36 min
    Bit rate mode : Constant
    Bit rate : 128 kb/s
    Channel(s) : 2 channels
    Sampling rate : 44.1 kHz
    Compression mode : Lossy
    Delay relative to video : -458 ms
    Stream size : 143 MiB (4%)
    Writing library : Lavc58.35.100 libmp3lame
    Default : Yes
    Forced : No

      1. The truth that before I did not have the opportunity to see much and thanks to your page I’m remedying it. I take advantage now that I can get more into boxing.
        It is also true that this time you have put lighter files and I always appreciate it. The previous ones that you put of 4GB I could not download them.
        Greetings.

Leave a Reply

Your email address will not be published.