Boxing.2019.03.09.PBC.on.FOX.720p.WEB-DL-MBC

Boxing.2019.03.09.PBC.on.FOX.720p.WEB-DL-MBC

Name:
Boxing.2019.03.09.PBC.on.FOX.720p.WEB-DL-MBC
Description:

event: PBC on FOX
Dignity Health Sports Park , Carson, California, USA
date: 2019-03-09
source: WEB-DL
subtitles: en

note: commercials removed

– More Boxing Content –


Format                                   : Matroska
Format version                           : Version 4
File size                                : 3.55 GiB
Duration                                 : 2 h 26 min
Overall bit rate                         : 3 476 kb/s
Encoded date                             : UTC 2019-03-10 05:41:29
Writing application                      : mkvmerge v8.8.0 (‘Wind at my back’) 64bit
Writing library                          : libebml v1.3.3 + libmatroska v1.4.4

Video
ID                                       : 1
Format                                   : AVC
Format/Info                              : Advanced Video Codec
Format profile                           : [email protected]
Format settings                          : CABAC / 4 Ref Frames
Format settings, CABAC                   : Yes
Format settings, ReFrames                : 4 frames
Codec ID                                 : V_MPEG4/ISO/AVC
Duration                                 : 2 h 57 min
Bit rate mode                            : Constant
Bit rate                                 : 2 751 kb/s
Nominal bit rate                         : 3 372 kb/s
Width                                    : 1 280 pixels
Height                                   : 720 pixels
Display aspect ratio                     : 16:9
Frame rate mode                          : Variable
Frame rate                               : 24.630 FPS
Original frame rate                      : 29.970 (30000/1001) FPS
Color space                              : YUV
Chroma subsampling                       : 4:2:0
Bit depth                                : 8 bits
Scan type                                : Progressive
Bits/(Pixel*Frame)                       : 0.121
Stream size                              : 3.42 GiB (96%)
Default                                  : Yes
Forced                                   : No

Audio
ID                                       : 2
Format                                   : AAC LC
Format/Info                              : Advanced Audio Codec Low Complexity
Codec ID                                 : A_AAC-2
Duration                                 : 2 h 57 min
Bit rate                                 : 103 kb/s
Channel(s)                               : 2 channels
Channel layout                           : L R
Sampling rate                            : 48.0 kHz
Frame rate                               : 46.875 FPS (1024 SPF)
Compression mode                         : Lossy
Delay relative to video                  : 11 ms
Stream size                              : 131 MiB (4%)
Language                                 : English
Default                                  : Yes
Forced                                   : No

https://1fichier.com/?5muoprhaxu25d8xday2f
https://anonfile.com/s3R0Hcweb9
https://ddl.to/j5gfe6j5oz1k
http://dl.free.fr/kgCswdbOG
https://filerio.in/gro7layo8bo1

Leave a Reply

Your email address will not be published. Required fields are marked *