Boxing 2019 02 23 PBC on FS1 720p WEB-DL x264-MBC

Boxing 2019 02 23 PBC on FS1 720p WEB-DL x264-MBC

event: 	PBC on FS1
 Minneapolis Armory, Minneapolis, Minnesota, USA
 date:		2019-02-23
 source:	WEB-DL
 subtitles:	en
 
 note: commercial breaks removed
 - More Boxing Content - 

Format                                   : AVC
Format/Info                              : Advanced Video Codec
Format profile                           : [email protected]
Format settings                          : CABAC / 4 Ref Frames
Format settings, CABAC                   : Yes
Format settings, ReFrames                : 4 frames
Codec ID                                 : V_MPEG4/ISO/AVC
Duration                                 : 2 h 57 min
Bit rate mode                            : Constant
Bit rate                                 : 2 774 kb/s
Nominal bit rate                         : 3 372 kb/s
Width                                    : 1 280 pixels
Height                                   : 720 pixels
Display aspect ratio                     : 16:9
Frame rate mode                          : Variable
Frame rate                               : 24.827 FPS
Original frame rate                      : 29.970 (30000/1001) FPS
Color space                              : YUV
Chroma subsampling                       : 4:2:0
Bit depth                                : 8 bits
Scan type                                : Progressive
Bits/(Pixel*Frame)                       : 0.121
Stream size                              : 3.44 GiB (96%)
Default                                  : Yes
Forced                                   : No

Audio
ID                                       : 2
Format                                   : AAC LC
Format/Info                              : Advanced Audio Codec Low Complexity
Codec ID                                 : A_AAC-2
Duration                                 : 2 h 57 min
Bit rate                                 : 104 kb/s
Channel(s)                               : 2 channels
Channel layout                           : L R
Sampling rate                            : 48.0 kHz
Frame rate                               : 46.875 FPS (1024 SPF)
Compression mode                         : Lossy
Delay relative to video                  : 16 ms
Stream size                              : 132 MiB (4%)
Language                                 : English
Default                                  : Yes
Forced                                   : No

https://1fichier.com/?oz5ucqjcw2qtfx5cr41y
https://1fichier.com/?0qznkzyxl4w34hfwchz6
https://1fichier.com/?7jks45u1m5qofv3tpx55
https://1fichier.com/?ud76he4yu8ffdzfmgev1


https://anonfile.com/idk6aav4b4/Boxing.2019.02.23.PBC.on.FS1.720p.WEB-DL.x264-MBC.part1_rar
https://anonfile.com/y4k7a8vdba/Boxing.2019.02.23.PBC.on.FS1.720p.WEB-DL.x264-MBC.part2_rar
https://anonfile.com/Yfk1acv6b9/Boxing.2019.02.23.PBC.on.FS1.720p.WEB-DL.x264-MBC.part3_rar
https://anonfile.com/Lfk8a3v9be/Boxing.2019.02.23.PBC.on.FS1.720p.WEB-DL.x264-MBC.part4_rar


https://ddl.to/9cfg3lb4fwa6
https://ddl.to/mt6oi0o1mqot
https://ddl.to/g4rifdf1xjsm
https://ddl.to/cj2l6eqj9zah


http://dl.free.fr/mqvxhO0gv
http://dl.free.fr/frpk8InVH
http://dl.free.fr/kW3obEI8G
http://dl.free.fr/hgnUUNs9t

Leave a Reply

Your email address will not be published. Required fields are marked *