Blitzkrieg Pro Take Warning 2019 720p / 19th MAY 2019

Blitzkrieg Pro 2019 05 19 Take Warning 720p WEB h264-NCMP

Blitzkrieg Pro 2019 05 19 Take Warning 720p WEB h264-NCMP

Take Warning! 
Blitzkrieg Pro 
Sunday, May 19th, 2019 

Live from Hartford, CT – Featuring: 

    Joey Janela vs MJF 
    For the Bedlam Championship: Skylar (c) vs Kris Statlander 
    Anthony Greene vs Rich Swann 
    Chain Match: CPA vs Kip Stevens 
    Shook Crew vs The Batiri vs Tommy Dreamer and Shazza McKenzie 
    East Coast Bastard Crew vs Travis Huckabee and DL Hurst vs Maine State Posse 
    Mark Sterling vs Brad Hollister 
    Bedlam Championship, Number One Contendership Scramble: Scotty Wild vs Jeff Cannonball vs Kirby Wackerman vs Bobby Orlando vs Alexander Lee 

General
Complete name : Blitzkrieg.Pro.2019.05.19.Take.Warning.720p.WEB.h264-NCMP.mp4
Format : MPEG-4
Format profile : Base Media
Codec ID : isom (isom/iso2/avc1/mp41)
File size : 3.00 GiB
Duration : 2 h 43 min
Overall bit rate : 2 627 kb/s
Writing application : Lavf55.12.100

Video
ID : 2
Format : AVC
Format/Info : Advanced Video Codec
Format profile : Ba[email protected]
Format settings : 1 Ref Frames
Format settings, CABAC : No
Format settings, Reference : 1 frame
Codec ID : avc1
Codec ID/Info : Advanced Video Coding
Duration : 2 h 43 min
Bit rate : 2 491 kb/s
Width : 1 280 pixels
Height : 720 pixels
Display aspect ratio : 16:9
Frame rate mode : Variable
Frame rate : 29.970 FPS
Minimum frame rate : 18.750 FPS
Maximum frame rate : 30.303 FPS
Color space : YUV
Chroma subsampling : 4:2:0
Bit depth : 8 bits
Scan type : Progressive
Bits/(Pixel*Frame) : 0.090
Stream size : 2.84 GiB (95%)
Codec configuration box : avcC

Audio
ID : 1
Format : AAC LC
Format/Info : Advanced Audio Codec Low Complexity
Codec ID : mp4a-40-2
Duration : 2 h 43 min
Bit rate mode : Constant
Bit rate : 128 kb/s
Channel(s) : 2 channels
Channel layout : L R
Sampling rate : 48.0 kHz
Frame rate : 46.875 FPS (1024 SPF)
Compression mode : Lossy
Stream size : 149 MiB (5%)
Default : Yes
Alternate group : 1

https://1fichier.com/?a2fi7bvyfvlzt3mi5i4h
https://anonfile.com/teC5tds9nd
https://bayfiles.com/XeDetds1n8
https://bitster.cz/file/fa0b5d
http://dl.free.fr/jd1iduqUH
https://file.bz/I2D1t4sdn0
https://filerio.in/mmkzzxec0saw
https://filescdn.net/hp3mglgwhrye
https://multiup.org/download/672084fb01ad0481175cf31b260f6a21
http://nitroflare.com/view/49D63117F7009D0
https://openload.co/f/b56cCe2sP_g
https://rg.to/file/69f0fece3a95a2d9cd9743dd7eef9940
https://turbobit.net/mhpmy37r278j.html
https://uploadgig.com/file/download/71ac06bfe41e1Df9

Leave a Reply

Your email address will not be published. Required fields are marked *