Blitzkrieg Pro Blitzkrieg Vs Limitless 2018 720p

Blitzkrieg Pro 2018 12 01 Blitzkrieg vs Limitless 720p WEB h264-NCMP
Blitzkrieg Pro 2018 12 01 Blitzkrieg vs Limitless 720p WEB h264-NCMP

Blitzkrieg vs Limitless 
Blitzkrieg Pro 
Saturday, December 1st, 2018 

From Enfield, Conneticut – Featuring: 

    Anthony Greene vs DJ Z 
    Massage NV (Dorian Graves and VSK) and CPA vs The Maine State Posse (Aiden Aggro, Alexander Lee and The DangerKid) 
    The Batiri (Kodama and Obariyon) vs Harlow O’Hara and Kevin Blackwood 
    John Silver vs Scotty Wild 
    Sass And Fury (Jeremy Leary and Skylar) vs Doomfly (Delilah Doom and Eli Everfly) 
    Daniel Garcia vs Ashley Vox vs Hermit Crab vs Matt Striker vs Nick Curry vs Puf vs Kirby Wackerman vs Francis Kipland Stevens 
    Anything Goes Match: Ace Romero vs Jeff Cannonball 
    Full Blooded Intoxication (Little Guido and Troy Nelson) vs Bobby Orlando and Brett Domino 
    Elimination Match: Team Blitzkrieg (Jeremy Leary, Kodama, Mark Sterling, Obariyon, Scotty Wild and Skyar) vs Team Limitless (Aiden Aggro, Alexander Lee, Anthony Greene, The DangerKid and Ashley Vox) 

General
Complete name : Blitzkrieg.Pro.2018.12.01.Blitzkrieg.vs.Limitless.720p.WEB.h264-NCMP.mp4
Format : MPEG-4
Format profile : Base Media
Codec ID : isom (isom/iso2/avc1/mp41)
File size : 1.88 GiB
Duration : 2 h 41 min
Overall bit rate : 1 670 kb/s
Writing application : Lavf55.12.100

Video
ID : 2
Format : AVC
Format/Info : Advanced Video Codec
Format profile : [email protected]
Format settings : CABAC / 4 Ref Frames
Format settings, CABAC : Yes
Format settings, Reference : 4 frames
Codec ID : avc1
Codec ID/Info : Advanced Video Coding
Duration : 2 h 41 min
Bit rate : 1 533 kb/s
Width : 1 280 pixels
Height : 720 pixels
Display aspect ratio : 16:9
Frame rate mode : Variable
Frame rate : 29.970 FPS
Minimum frame rate : 29.940 FPS
Maximum frame rate : 29.970 FPS
Color space : YUV
Chroma subsampling : 4:2:0
Bit depth : 8 bits
Scan type : Progressive
Bits/(Pixel*Frame) : 0.056
Stream size : 1.73 GiB (92%)
Codec configuration box : avcC

Audio
ID : 1
Format : AAC LC
Format/Info : Advanced Audio Codec Low Complexity
Codec ID : mp4a-40-2
Duration : 2 h 41 min
Bit rate mode : Constant
Bit rate : 129 kb/s
Channel(s) : 2 channels
Channel layout : L R
Sampling rate : 48.0 kHz
Frame rate : 46.875 FPS (1024 SPF)
Compression mode : Lossy
Stream size : 148 MiB (8%)
Default : Yes
Alternate group : 1

https://1fichier.com/?6sr211cooe0nzjugl9pu
https://anonfile.com/q0A1t3s5nf
https://bayfiles.com/p1B6t6sfn7
https://bitster.cz/file/415bc9
https://ddl.to/azkl5rsg49fo
http://dl.free.fr/kztaGfyEl
https://file.bz/b0B0t6san7
http://www.filefactory.com/file/38hrpebka79f
https://filerio.in/ee6uswqbdem9
https://filescdn.net/y9jvy2iah4hg
https://multiup.org/download/0d6bfff1a15135e9665325cf9d88a4f9
http://www.netshare.cz/894a2d52ec2ed03e
http://nitroflare.com/view/8D4AAF5E9B943E1
https://openload.co/f/98ZE82l9Mtc
https://rg.to/file/a475383ab1c1968128336e4c1fbd38c3
https://turbobit.net/m2369gntku47.html
https://uploadgig.com/file/download/a1e91b16d8ba7658

Leave a Reply

Your email address will not be published. Required fields are marked *